Мега распродажа FORZA HORIZON 4 ULTIMATE+ВСЕ DLC+ОНЛАЙН всего за 499р. 349 руб. (супер цена). Внимание количество ограничено!!!

iTunes

1+1

iTunes

мы

iTunes

1

1 сезон

Чернобыль

1 сезон

Ральф против интернета

Лицензия

ПШазам

8 сезон

Игра престолов

Лицензия

30
pack

ВАЖНО

!!Акция!!

Alien_RageХит недели

RePack

Resident Evil 21

ИГРА 18+

pack

RePack

Metro:Exodus

!!Акция!!

Alien_Rage

RePack

fifa19

RePack

Assassins Creed: Odyssey

RePack

NEED FOR SPEED™ PAYBACK

3 сезон

9 сезон

Бесстыжие 9 сезон

Все сериалы

все сериалы на PB.wtf

RePack

FAR CRY 5
Ребята, катастрофически не хватает 2730р. для оплаты серверов за ИЮНЬ (всвязи с блокировками трафик упал в 3 раза), 1-2р., выручайте.
  

Угнать за 60 секунд / Gone in 60 Seconds (Г.Б. Галицки / H.B. Halicki) [1974, боевик, драма, криминал, BDRip] [DVO] piratbit.pw

Угнать за 60 секунд через торрент piratbit.pw

Раздают: 1 [ 0 KB/s ]
Размер: 1.45 GB | Добавлен: 5 лет 10 мес. назад | Торрент скачан:266 раз
Скачать  

28-08-2013 18:55 Угнать за 60 секунд Скачать торрент  

Угнать за 60 секунд / Gone in 60 Seconds
«Let the wrecking begin»

Год выпуска: 1974
Страна: США
Жанр: боевик, драма, криминал
Продолжительность: 01:37:46
Перевод: Профессиональный (двухголосый, закадровый)

Режиссер: Г.Б. Галицки

В ролях: Г.Б. Галицки, Мэрион Бусиа, Jerry Daugirda, Джеймс Макинтайр, Джордж Коул, Рональд Галицки, Markos Kotsikos, Батч Стоктон, Фил Вудс, J.C. Agajanian Jr

Описание: Его работа — кража автомобилей. Его последний контракт: угнать 40 машин за одну неделю. Но полицейские не желают мириться с ролью статистов — захватывающая гонка начинается!

Качество: BDRip (источник: Тарантиныч / Blu-Ray Remux / 1080р)
Формат: AVI
Видео кодек: XviD
Аудио кодек: AC3
Видео: 704x384 (1.83:1), 23.976 fps, XviD build 65 ~1730 kbps avg, 0.27 bit/pixel
Аудио: 48 kHz, AC3, 3/2 (L,C,R,l,r) + LFE ch, ~384.00 kbps avg




Релиз: [img]https://piratbit.top/goo.php?url=https://piratbit.top/goo.php?url=http://imageban.ru/out/2009/11/03/8ef018797a161dbcd4daec609e9f1048.png[/img]
E:INTERNETUgnat.za.60.sekund.1974.RUS.BDRip.XviD.AC3.avi
General
Complete name : E:INTERNETUgnat.za.60.sekund.1974.RUS.BDRip.XviD.AC3.avi
Format : AVI
Format/Info : Audio Video Interleave
File size : 1.45 GiB
Duration : 1h 37mn
Overall bit rate : 2 124 Kbps
Movie name : Угнать за 60 секунд / Gone in 60 Seconds (1974) BDRip
Director : yaroslaigor
Genre : боевик, драма, криминал
Writing application : VirtualDubMod 1.5.10.2 (build 2542/release)

Video #0
ID : 0
Format : MPEG-4 Visual
Format profile : Advanced Simple@L5
Format settings, BVOP : 1
Format settings, QPel : No
Format settings, GMC : No warppoints
Format settings, Matrix : Custom
Codec ID : XVID
Codec ID/Hint : XviD
Duration : 1h 37mn
Bit rate : 1 731 Kbps
Width : 704 pixels
Height : 384 pixels
Display aspect ratio : 1.85:1
Frame rate : 23.976 fps
Color space : YUV
Chroma subsampling : 4:2:0
Bit depth : 8 bits
Scan type : Progressive
Compression mode : Lossy
Bits/(Pixel*Frame) : 0.267
Stream size : 1.18 GiB (81%)
Writing library : XviD 65
Audio #1
ID : 1
Format : AC-3
Format/Info : Audio Coding 3
Mode extension : CM (complete main)
Format settings, Endianness : Big
Codec ID : 2000
Duration : 1h 37mn
Bit rate mode : Constant
Bit rate : 384 Kbps
Channel(s) : 6 channels
Channel positions : Front: L C R, Side: L R, LFE
Sampling rate : 48.0 KHz
Bit depth : 16 bits
Compression mode : Lossy
Stream size : 269 MiB (18%)
Alignment : Split accross interleaves
Interleave, duration : 42 ms (1.00 video frame)
Interleave, preload duration : 500 ms

  • На номерном знаке «роллс-ройса» написано HBH. В честь режиссера, сценариста и актера Эйч Би Галицки (H.B. Halicki).
  • Столкновение «Элеанор» со столбом на хайвее не было запланировано. Водитель «Кадиллака», будучи подрезанным Галицки, не сумел сориентироваться и задел «Мустанг», из-за чего тот развернуло и машина передним левым крылом вырвала столб.
  • На некоторых кадрах заметно, что у «Элеанор» установлен спортивный трёхспицевый руль вместо оригинального.
  • «Кадиллаки», разбитые полицейской машиной в автосалоне «Moran Cadillac», Тоби выкупил по дешёвке только после того, как они приобрели не товарный вид.
  • Всего было разбито 93 машины для 97 минут экранного времени
  • Полицейские, пожарники, медики, прохожие - все были настоящими. Многие даже не знали, что снимают фильм, поэтому реакция на происходящее была вполне реальная.
  • Для съемок был использован лишь один Ford Mustang (не в модификации «Mach 1») (в отличие от ремейка). На него был установлен каркас безопасности и гоночные ремни. Двигатель «351 Windsor», объёмом 5,7 литров, был модифицирован самим Галицки.
  • В 2008 году Денис Шакириан выиграла дело против Кэролла Шелби об авторских правах на название «Элеанор», которое использовали множество авто-ателье, создававших копии «Shelby Mustang» 1967 года, фигурировавшего в ремейке.
  • Официального сценария для фильма никогда не существовало. Были лишь пара листов рукописного текста с немногочисленными диалогами. Галицки сам предоставил большинство машин для съёмок.
piratbit.pw



Скачать Угнать за 60 секунд через торрент http://s017.radikal.ru/i412/1308/c8/5b150dbbfb9b.jpg Скачать фильм Угнать за 60 секунд через торрент бесплантно в хорошем качестве Описание: Его работа — кража автомобилей. Его последний контракт: угнать 40 машин за одну неделю. Но полицейские не желают мириться с ролью ... 9.2 10 11
Info! Золотая раздача, скачанное не засчитывается.
Торрент: Зарегистрирован [2013-08-28 18:55] · скачан: 266 раз
Статус: √ проверено
Размер: 1.45 GB
Как cкачать? Как скачать Угнать за 60 секунд через торрент | qTorrent

% Раздел Тема Автор DL S | L
Фильмы с авторской озвучкой [ 1.56 GB ] Угнать за 60 секунд / Gone in Sixty Seconds [2000 HDRip] 2x[AVO] killermax2013 Скачать
1 | 0
Фильмы (HD 720p, 1080p) (48-60 fps) [ 10.05 GB ] Угнать за 60 секунд / Gone in Sixty Seconds [2000 BDRip 1080p - [] Theatrical Cut 60FPS Tiberiumsun69 Скачать
3 | 0
Фильмы (HD 720p, 1080p) (48-60 fps) [ 5.37 GB ] Угнать за 60 секунд / Gone in Sixty Seconds [2000 BDRip 720p - [] Theatrical Cut 60FPS Tiberiumsun69 Скачать
1 | 0
Фильмы до 2000 г. [ 2.19 GB ] Угнать за 60 секунд / Gone in Sixty Seconds [2000 BDRip] BOND-007 Скачать
1 | 0
Фильмы до 2000 г. [ 1.46 GB ] Угнать за 60 секунд [Unrated] / Gone in Sixty Seconds [Режиссерская версия] [2000 DVDRip DUB лицензия] Drakosha Скачать
1 | 0
Фильмы [HD 720p, 1080p] (Хороший звук DUB, MVO) [ 4.57 GB ] Угнать за 60 секунд / Gone in 60 Seconds [2000 BDRip 720p] SibFrost Скачать
1 | 0
Фильмы до 2000 г. [ 1.45 GB ] Угнать за 60 секунд / Gone in 60 Seconds [1974 DVDRip-AVC] Валшебнег Скачать
1 | 0


>> Регистрируемся здесь <<






Отзывы и комментарии о схеме читаем и пишем здесь: ---> Отзывы и комментарии о схеме

Новые благодарочки в телеграм довольных пользователей:
скриншот   скриншот   скриншот   скриншот   скриншот
    Дорогой пользователь! Огромная просьба, поблагодарите релизера, оцените раздачу и оставьте свои комментарий, если Вы скачали Угнать за 60 секунд через торрент бесплатно! Внесите свою лепту в развитие PiratBit!
    Комментировать посты могут только пользователи прошедшие не сложную регистрацию
    Показать сообщения:    

    Угнать за 60 секунд через торрент
    Скачать бесплатно Угнать за 60 секунд
    Угнать за 60 секунд скачать торрент
    Угнать за 60 секунд смотреть онлайн
    Cкачать фильм Угнать за 60 секунд бесплатно
    Угнать за 60 секунд скачать торрент в хорошем качестве
    Угнать за 60 секунд смотреть онлайн бесплатно в хорошем качестве


    Вы не можете начинать темы
    Вы не можете отвечать на сообщения
    Вы не можете редактировать свои сообщения
    Вы не можете удалять свои сообщения
    Вы не можете голосовать в опросах
    Вы не можете прикреплять файлы к сообщениям
    Вы можете скачивать файлы