1 сезон

1 сезон

iTunes

1

КиноПоиск HD

Кинопоиск HD

iTunes

13

1 сезон

RePack

30

Ultimate

ВАЖНО

ИГРА 18+

pack

RePack

MK11
pack

Легкие деньги

RePack

jed

RePack

fifa19

RePack

RDR2

RePack

NEED FOR SPEED™ PAYBACK

4 сезон

9 сезон

Бесстыжие 9 сезон

Все сериалы

все сериалы на PB.wtf

RePack

FAR CRY 5
  
Magnet ссылка

Мертвенно-бледный / Livide (Александр Бустильо / Alexandre Bustillo, Жюльен Мори / Julien Maury) [ 2011 , Франция , ужасы, фэнтези , HDRip , AVO ,Original ] piratbit.pw

Мертвенно-бледный через торрент piratbit.pw

Размер: 2.18 GB | Добавлен: 7 лет 8 мес. назад | Торрент скачан:162 раза
Скачать  

13-08-2013 15:33 Мертвенно-бледный Скачать торрент  

Мертвенно-бледный / Livide

Год выпуска: 2011
Страна: Франция
Жанр: ужасы, фэнтези
Продолжительность: 01:32:21
Перевод:
Перевод № 1: Одноголосый закадровый (Алексей "MrRose" Наследников)
Перевод № 2: Одноголосый закадровый (cmert)

Оригинальная аудиодорожка: французкая
Субтитры: русские (Lentyai80), английские [.srt]

Режиссер: Александр Бустильо / Alexandre Bustillo, Жюльен Мори / Julien Maury
В ролях: Хлоя Куллу (Lucie Klavel), Феликс Моати (William), Жереми Капон (Ben), Катрин Жакоб (Catherine Wilson), Беатрис Даль (La m re de Lucie), Хлоя Марк (Anna), Мари-Клод Пьетрагалла (Jessel), Лоик Бертезен (Pierre Klavel), Жоэль Кюденнек (André Marchal), Сабина Лондо (Maddy), Серж Кабон (M. Kerrien, le p re de William), Nathalie Presles (La m re de Ben et William)
Описание: Люси устраивается на работу сиделкой-воспитателем. Ее задание - посетить старуху, которая живет в большом пустынном доме. Случайно Люси узнает, что в доме старой женщины спрятаны сокровища. Вместе с друзьями, ночью, они проникают в дом, который становится для них дьявольской ловушкой, т. к. охотникам за чужими сокровищами предстоит пережить ужасающие сверхъестественные события...
Рейтинг
kinopoisk.ru: 5.413 (643)
imdb.com: 5.70 (2 160)
Бюджет: $5 000 000
Мировая премьера: 11 сентября 2011

  • Качество: HDRip
  • Формат: AVI
  • Видео кодек: XviD
  • Аудио кодек: AC3
  • Видео: XviD, 720x304 (2.35:1), 2266 kbps, 24 fps, 0,432 bpp
  • Аудио №1: AC3 / 5.1 / 48 kHz / 448 kbps / 16 bit (RUS) (Алексей "MrRose" Наследников)
  • Аудио №2: AC3 / 2.0 / 48 kHz / 192 kbps / 16 bit (RUS) (cmert)
  • Аудио №3: AC3 / 5.1 / 48 kHz / 448 kbps / 16 bit (Original)
    Format : AVI
    Format/Info : Audio Video Interleave
    Format profile : OpenDML
    File size : 2.18 GiB
    Duration : 1h 32mn
    Overall bit rate : 3 378 Kbps
    Writing application : VirtualDubMod 1.5.10.3 | www.virtualdub-fr.org || (build 2550/release)

    Video
    ID : 0
    Format : MPEG-4 Visual
    Format profile : Advanced Simple@L5
    Format settings, BVOP : 1
    Format settings, QPel : No
    Format settings, GMC : No warppoints
    Format settings, Matrix : Custom
    Codec ID : XVID
    Codec ID/Hint : XviD
    Duration : 1h 32mn
    Bit rate : 2 267 Kbps
    Width : 720 pixels
    Height : 304 pixels
    Display aspect ratio : 2.35:1
    Frame rate : 24.000 fps
    Color space : YUV
    Chroma subsampling : 4:2:0
    Bit depth : 8 bits
    Scan type : Progressive
    Compression mode : Lossy
    Bits/(Pixel*Frame) : 0.432
    Stream size : 1.46 GiB (67%)
    Writing library : XviD 73

    Audio #1
    ID : 1
    Format : AC-3
    Format/Info : Audio Coding 3
    Mode extension : CM (complete main)
    Codec ID : 2000
    Duration : 1h 32mn
    Bit rate mode : Constant
    Bit rate : 448 Kbps
    Channel(s) : 6 channels
    Channel positions : Front: L C R, Side: L R, LFE
    Sampling rate : 48.0 KHz
    Bit depth : 16 bits
    Compression mode : Lossy
    Stream size : 296 MiB (13%)
    Alignment : Split accross interleaves
    Interleave, duration : 42 ms (1.00 video frame)
    Interleave, preload duration : 500 ms

    Audio #2
    ID : 2
    Format : AC-3
    Format/Info : Audio Coding 3
    Mode extension : CM (complete main)
    Codec ID : 2000
    Duration : 1h 32mn
    Bit rate mode : Constant
    Bit rate : 192 Kbps
    Channel(s) : 2 channels
    Channel positions : Front: L R
    Sampling rate : 48.0 KHz
    Bit depth : 16 bits
    Compression mode : Lossy
    Stream size : 127 MiB (6%)
    Alignment : Split accross interleaves
    Interleave, duration : 42 ms (1.00 video frame)
    Interleave, preload duration : 500 ms

    Audio #3
    ID : 3
    Format : AC-3
    Format/Info : Audio Coding 3
    Mode extension : CM (complete main)
    Codec ID : 2000
    Duration : 1h 32mn
    Bit rate mode : Constant
    Bit rate : 448 Kbps
    Channel(s) : 6 channels
    Channel positions : Front: L C R, Side: L R, LFE
    Sampling rate : 48.0 KHz
    Bit depth : 16 bits
    Compression mode : Lossy
    Stream size : 296 MiB (13%)
    Alignment : Split accross interleaves
    Interleave, duration : 42 ms (1.00 video frame)
    Interleave, preload duration : 500 ms
    Сэмпл / Трейлер piratbit.pw



  • Скачать Мертвенно-бледный через торрент http://i6.imageban.ru/out/2013/08/13/6ff2abc919969f157798e2b687d423ca.png Скачать фильм Мертвенно-бледный через торрент бесплантно в хорошем качестве Описание: Люси устраивается на работу сиделкой-воспитателем. Ее задание - посетить старуху, которая живет в большом пустынном доме. ... 9.2 10 5
    Info! Золотая раздача, скачанное не засчитывается.
    Торрент: Зарегистрирован [2013-08-13 15:33] · скачан: 162 раз
    Статус: √ проверено
    Размер: 2.18 GB
    Как cкачать? Как скачать Мертвенно-бледный через торрент | UTorrent

    % Раздел Тема Автор DL S | L
    Фильмы 2011 [ 1.29 GB ] Мертвенно-бледный / Livide [2011 DVDRip VO] chenya28 Скачать
    1 | 0

    28-11-2019 20:33  

    Отключить всю рекламу на сайте

      Дорогой пользователь! Огромная просьба, поблагодарите релизера, оцените раздачу и оставьте свои комментарий, если Вы скачали Мертвенно-бледный через торрент бесплатно! Внесите свою лепту в развитие PiratBit!
      Комментировать посты могут только пользователи прошедшие не сложную регистрацию
      Показать сообщения:    

      Мертвенно-бледный через торрент
      Скачать бесплатно Мертвенно-бледный
      Мертвенно-бледный скачать торрент
      Мертвенно-бледный смотреть онлайн
      Cкачать фильм Мертвенно-бледный бесплатно
      Мертвенно-бледный скачать торрент в хорошем качестве
      Мертвенно-бледный смотреть онлайн бесплатно в хорошем качестве


      Вы не можете начинать темы
      Вы не можете отвечать на сообщения
      Вы не можете редактировать свои сообщения
      Вы не можете удалять свои сообщения
      Вы не можете голосовать в опросах
      Вы не можете прикреплять файлы к сообщениям
      Вы можете скачивать файлы