1 сезон

1 сезон

iTunes

1

КиноПоиск HD

Кинопоиск HD

iTunes

13

1 сезон

RePack

30

Ultimate

ВАЖНО

ИГРА 18+

pack

RePack

MK11
pack

Легкие деньги

RePack

jed

RePack

fifa19

RePack

RDR2

RePack

NEED FOR SPEED™ PAYBACK

4 сезон

9 сезон

Бесстыжие 9 сезон

Все сериалы

все сериалы на PB.wtf

RePack

FAR CRY 5
  
Magnet ссылка

Жетоны ярости / Bu Er Shen Tan (Це Минг Вонг / Tsz Ming Wong) [ 2013 , Китай , боевик, комедия, детектив , DVDRip, AVO] piratbit.pw

Жетоны ярости через торрент piratbit.pw

Качают: 1 [ 0 KB/s ]
Размер: 1.37 GB | Добавлен: 7 лет 8 мес. назад | Торрент скачан:788 раз
Скачать  

10-08-2013 04:11 Жетоны ярости Скачать торрент  

Жетоны ярости / Bu Er Shen Tan Год выпуска: 2013
Страна: Китай
Жанр: боевик, комедия, детектив
Продолжительность: 01:33:49
Перевод: Любительский (одноголосый) [Ворон]
Режиссер: Це Минг Вонг / Tsz Ming Wong
В ролях: Джет Ли (Huang Fei Hong), Чжан Вэнь (Wang Bu Er), Сесилия Лю (Liu Jin Shui), Мишель Чэнь (Angela), Янь Лю (Dai Yi Yi), Аарон Шанг (Li Bu Chuan), Сингх Хартихан Битто, Колин Чоу (Chen Hu), Лик-Сун Фон, Стивен Фанг (Liu Jun), Грэйс Хуанг, Хуан Сяомин
Описание: Когда через Гонконг проносится волна жутких убийств, дело поручают двум проблемным полицейским. Это молодой баламут Ван и умудрённый опытом Хуан, который по горло сыт безрассудностью младшего напарника, постоянно втягивающего их обоих в неприятности. После того, как выясняется, что все жертвы были бывшими парнями честолюбивой и перспективной молодой актрисы Лю, их расследование заходит в тупик, и детективы должны начать смертельно опасную игру - чтобы выманить убийцу, одному из них придётся выдать себя за возлюбленного Лю.
Рейтинг
kinopoisk.ru: 5.281 (95)
imdb.com: 4.50 (169)
  • Качество: DVDRip
  • Формат: AVI
  • Видео кодек: XviD
  • Аудио кодек: AC3
  • Видео: XviD, 704x288 (2.40:1), 1889 kbps, 25 fps, 0,373 bpp
  • Аудио: AC3 / 2.0 / 48 kHz / 192 kbps / 16 bit
    General
    Complete name : D:Загрузки из интернетаBadges of Fury.2013.DVDRip.RU.avi
    Format : AVI
    Format/Info : Audio Video Interleave
    File size : 1.37 GiB
    Duration : 1h 33mn
    Overall bit rate : 2 091 Kbps
    Writing application : VirtualDubMod 1.5.10.2 (build 2542/release)
    Writing library : VirtualDubMod build 2542/release

    Video
    ID : 0
    Format : MPEG-4 Visual
    Format profile : Advanced Simple@L5
    Format settings, BVOP : 2
    Format settings, QPel : No
    Format settings, GMC : No warppoints
    Format settings, Matrix : Default (MPEG)
    Codec ID : XVID
    Codec ID/Hint : XviD
    Duration : 1h 33mn
    Bit rate : 1 889 Kbps
    Width : 704 pixels
    Height : 288 pixels
    Display aspect ratio : 2.40:1
    Frame rate : 25.000 fps
    Color space : YUV
    Chroma subsampling : 4:2:0
    Bit depth : 8 bits
    Scan type : Progressive
    Compression mode : Lossy
    Bits/(Pixel*Frame) : 0.373
    Stream size : 1.24 GiB (90%)
    Writing library : XviD 1.2.1 (UTC 2008-12-04)

    Audio
    ID : 1
    Format : AC-3
    Format/Info : Audio Coding 3
    Mode extension : CM (complete main)
    Codec ID : 2000
    Duration : 1h 33mn
    Bit rate mode : Constant
    Bit rate : 192 Kbps
    Channel(s) : 2 channels
    Channel positions : Front: L R
    Sampling rate : 48.0 KHz
    Bit depth : 16 bits
    Compression mode : Lossy
    Stream size : 129 MiB (9%)
    Alignment : Split accross interleaves
    Interleave, duration : 40 ms (1.00 video frame)
    Interleave, preload duration : 500 ms
    Сэмпл / Трейлер piratbit.pw



  • Скачать Жетоны ярости через торрент http://i6.imageban.ru/out/2013/08/10/98b730ec58877f6699bb51f66a4479d0.png Скачать фильм Жетоны ярости через торрент бесплантно в хорошем качестве Описание: Когда через проносится волна жутких убийств, дело поручают двум проблемным полицейским. Это молодой баламут Ван и ... 9.6 10 33
    Info! Золотая раздача, скачанное не засчитывается.
    Торрент: Зарегистрирован [2013-08-10 04:11] · скачан: 788 раз
    Статус: √ проверено
    Размер: 1.37 GB
    Как cкачать? Как скачать Жетоны ярости через торрент | UTorrent

    28-11-2019 20:33  

    Отключить всю рекламу на сайте

    10-08-2013 11:07 Жетоны ярости Скачать торрент  

    Спасибо посмеялся...piratbit.pw



    10-08-2013 12:15 Жетоны ярости Скачать торрент  

    Оказывается в Китае есть киноматографpiratbit.pw



    10-03-2014 16:55 Жетоны ярости Скачать торрент  

    когда выйдет лицензияpiratbit.pw



      Дорогой пользователь! Огромная просьба, поблагодарите релизера, оцените раздачу и оставьте свои комментарий, если Вы скачали Жетоны ярости через торрент бесплатно! Внесите свою лепту в развитие PiratBit!
      Комментировать посты могут только пользователи прошедшие не сложную регистрацию
      Показать сообщения:    

      Жетоны ярости через торрент
      Скачать бесплатно Жетоны ярости
      Жетоны ярости скачать торрент
      Жетоны ярости смотреть онлайн
      Cкачать фильм Жетоны ярости бесплатно
      Жетоны ярости скачать торрент в хорошем качестве
      Жетоны ярости смотреть онлайн бесплатно в хорошем качестве


      Вы не можете начинать темы
      Вы не можете отвечать на сообщения
      Вы не можете редактировать свои сообщения
      Вы не можете удалять свои сообщения
      Вы не можете голосовать в опросах
      Вы не можете прикреплять файлы к сообщениям
      Вы можете скачивать файлы