1 сезон

3 сезон

iTunes

1

iTunes

DUB Netflix

iTunes

13

1 сезон

RePack

30

Deluxe

pack

Легкие деньги

ВАЖНО

ИГРА 18+

pack

RePack

MK11

RePack

jed

RePack

fifa19

RePack

RDR2

RePack

NEED FOR SPEED™ PAYBACK

4 сезон

9 сезон

Бесстыжие 9 сезон

Все сериалы

все сериалы на PB.wtf

RePack

FAR CRY 5

Anonymous, добрый вечер, мы не успеваем до 1 числа собрать деньги на оплату серверов, помогите нам пожалуйста в это трудное время. В качестве благодарности мы отключим Вам всю рекламу на сайте (укажите свой ник в строку Ваше имя)!

×
  
Magnet ссылка

Месть нерожденному / Внутри / À l'intérieur / Inside (Александр Бустилло / Alexandre Bustillo, Жюльен Мори / Julien Maury) [2007, ужасы, триллер, BDRip] MVO + Original Fra piratbit.pw

Месть нерожденному через торрент piratbit.pw

Размер: 1.45 GB | Добавлен: 7 лет 10 мес. назад | Торрент скачан:189 раз
Скачать  

09-08-2013 14:10 Месть нерожденному Скачать торрент  

Месть нерожденному / À l'intérieur

«Открой мне свою дверь... И я проникну к тебе в душу!»

  • Год выпуска:2007
  • Страна:Франция
  • Жанр:ужасы, триллер
  • Продолжительность: 01:18:53
  • Перевод:Профессиональный (многоголосый, закадровый)

  • Субтитры: Нет
    • Режиссер:Александр Бустильо / Alexandre Bustillo, Жюльен Мори / Julien Maury

  • В ролях:Беатрис Даль (The Woman), Элисон Паради (Sarah), Натали Руссел (Louise), Франсуа-Режи Маршассон (Jean-Pierre), Жан-Баптист Табурен (Matthieu), Доминик Фрот (The Nurse), Клод Люле (The Doctor), Хайэм Зейтун (Policewoman), Тахар Рахим (Policeman #1), Эммануэль Гез (Policeman #2), Людовик Бертийо (BAC Policeman #1), Эммануэль Ланци (BAC Policeman #2)
    • Описание:
      Став виновницей автомобильной аварии, Сара потеряла мужа. Теперь вся ее жизнь посвящена ребенку, которого она скоро должна родить. Однако, каждый раз засыпая, женщина погружается в кошмар, который в скором времени станет для нее реальностью, но гораздо более страшной...

  • Рейтинг
    kinopoisk.ru: 5.865 (2392)
    imdb.com: 6.90 (18 744)
    MPAA: R - Лицам до 17 лет обязательно присутствие взрослого
    • Качество:BDRip
    • Формат:AVI
    • Видео кодек: XviD
    • Аудио кодек: AC3
    • Видео: XviD, 720x384 (1.875), 1852 kbps, 25 fps, 0,268 bpp
    • Аудио №1: AC3 / 5.1 / 48 kHz / 384 kbps / 16 bit- rus
    • Аудио №2: AC3 / 5.1 / 48 kHz / 384 kbps / 16 bit- fra


    General
    Complete name : D:ТорентыMest.nerozhdennomu.2007.DUAL.BDRip.XviD.AC3.-HQCLUB.avi
    Format : AVI
    Format/Info : Audio Video Interleave
    File size : 1.45 GiB
    Duration : 1h 18mn
    Overall bit rate : 2 634 Kbps
    Movie name : Mest.nerozhdennomu.2007.DUAL.BDRip.XviD.AC3.-HQCLUB
    Director : Orbit
    Writing application : VirtualDubMod 1.5.10.2 (build 2542/release)
    Copyright : hqclub.net
    Comment : 02.01.2011

    Video
    ID : 0
    Format : MPEG-4 Visual
    Format profile : Advanced Simple@L5
    Format settings, BVOP : 1
    Format settings, QPel : No
    Format settings, GMC : No warppoints
    Format settings, Matrix : Custom
    Codec ID : XVID
    Codec ID/Hint : XviD
    Duration : 1h 18mn
    Bit rate : 1 853 Kbps
    Width : 720 pixels
    Height : 384 pixels
    Display aspect ratio : 1.875
    Frame rate : 25.000 fps
    Color space : YUV
    Chroma subsampling : 4:2:0
    Bit depth : 8 bits
    Scan type : Progressive
    Compression mode : Lossy
    Bits/(Pixel*Frame) : 0.268
    Stream size : 1.02 GiB (70%)
    Writing library : XviD 1.2.1 (UTC 2008-12-04)

    Audio #1
    ID : 1
    Format : AC-3
    Format/Info : Audio Coding 3
    Mode extension : CM (complete main)
    Codec ID : 2000
    Duration : 1h 18mn
    Bit rate mode : Constant
    Bit rate : 384 Kbps
    Channel(s) : 6 channels
    Channel positions : Front: L C R, Side: L R, LFE
    Sampling rate : 48.0 KHz
    Bit depth : 16 bits
    Compression mode : Lossy
    Stream size : 216 MiB (15%)
    Alignment : Split accross interleaves
    Interleave, duration : 40 ms (1.00 video frame)
    Interleave, preload duration : 500 ms

    Audio #2
    ID : 2
    Format : AC-3
    Format/Info : Audio Coding 3
    Mode extension : CM (complete main)
    Codec ID : 2000
    Duration : 1h 18mn
    Bit rate mode : Constant
    Bit rate : 384 Kbps
    Channel(s) : 6 channels
    Channel positions : Front: L C R, Side: L R, LFE
    Sampling rate : 48.0 KHz
    Bit depth : 16 bits
    Compression mode : Lossy
    Stream size : 217 MiB (15%)
    Alignment : Split accross interleaves
    Interleave, duration : 40 ms (1.00 video frame)
    Interleave, preload duration : 500 ms


    © Оформление by Vetalpiratbit.pw



  • Скачать Месть нерожденному через торрент http://i6.imageban.ru/out/2013/08/09/df589c81f417ae75e1a7f2b15f5697c1.png Скачать фильм Месть нерожденному через торрент бесплантно в хорошем качестве Описание:Став виновницей автомобильной аварии, Сара потеряла мужа. Теперь вся ее жизнь посвящена ребенку, которого она скоро должна родить. ... 9.6 10 10
    Info! Золотая раздача, скачанное не засчитывается.
    Торрент: Зарегистрирован [2013-08-09 14:10] · скачан: 189 раз
    Статус: √ проверено
    Размер: 1.45 GB
    Как cкачать? Как скачать Месть нерожденному через торрент | UTorrent

    28-11-2019 20:33  

    Отключить всю рекламу на сайте

    10-08-2013 15:51 Месть нерожденному Скачать торрент  

    10 баллов piratbit.pw



      Дорогой пользователь! Огромная просьба, поблагодарите релизера, оцените раздачу и оставьте свои комментарий, если Вы скачали Месть нерожденному через торрент бесплатно! Внесите свою лепту в развитие PiratBit!
      Комментировать посты могут только пользователи прошедшие не сложную регистрацию
      Показать сообщения:    

      Месть нерожденному через торрент
      Скачать бесплатно Месть нерожденному
      Месть нерожденному скачать торрент
      Месть нерожденному смотреть онлайн
      Cкачать фильм Месть нерожденному бесплатно
      Месть нерожденному скачать торрент в хорошем качестве
      Месть нерожденному смотреть онлайн бесплатно в хорошем качестве


      Вы не можете начинать темы
      Вы не можете отвечать на сообщения
      Вы не можете редактировать свои сообщения
      Вы не можете удалять свои сообщения
      Вы не можете голосовать в опросах
      Вы не можете прикреплять файлы к сообщениям
      Вы можете скачивать файлы