1 сезон

1 сезон

iTunes

1

КиноПоиск HD

Кинопоиск HD

iTunes

13

1 сезон

RePack

30

Ultimate

ВАЖНО

ИГРА 18+

pack

RePack

MK11
pack

Легкие деньги

RePack

jed

RePack

fifa19

RePack

RDR2

RePack

NEED FOR SPEED™ PAYBACK

4 сезон

9 сезон

Бесстыжие 9 сезон

Все сериалы

все сериалы на PB.wtf

RePack

FAR CRY 5
  
Magnet ссылка

Стюарт: Прошлая жизнь / Stuart: A Life Backwards (Дэвид Эттвуд / David Attwood) [2007, Драма, Биография, DVDRip] [AVO] (Ю. Сербин) piratbit.pw

Стюарт: Прошлая жизнь через торрент piratbit.pw

Размер: 1.46 GB | Добавлен: 7 лет 8 мес. назад | Торрент скачан:232 раза
Скачать  

09-08-2013 10:25 Стюарт: Прошлая жизнь Скачать торрент  

Стюарт: Прошлая жизнь / Stuart: A Life Backwards
Год выпуска: 2007
Страна: Великобритания
Жанр: Драма, Биография
Продолжительность: 01:27:53
Перевод: Авторский (одноголосый закадровый) [Ю. Сербин]
Cубтитры: нет
Оригинальная аудиодорожка: нет

Режиссер: Дэвид Эттвуд / David Attwood

В ролях: Том Харди, Бенедикт Камбербэтч, Никола Даффетт, Клер-Луис Кордуэлл, Эдна Доре

Описание: 2000 год. На одном из собраний благотворительной организации “Помоги бездомным” молодой интеллигент Алекс Мастерс (Бен Камбербатч) знакомится со своим сверстником – бомжом Стюартом Шортером (Том Харди). Стоит сразу заметить, что Стюарт не простой бомж, он – перекрученный калека с мускульной дистрофией и искаженным голосом, а также бывший зек и наркоман. Хотя в целом – отличный парень.
Со временем интеллигент избавляется от страха и отвращения перед новым знакомым, и у них вскоре начинаются вполне товарищеские отношения. Теперь интеллигенту становится даже любопытно, как же Стюарт докатился до подобной жизни. Он начинает опрашивать друзей и родственников бомжа и постепенно узнает страшную и трагичную историю жизни своего приятеля.




Качество видео: DVDRip
Формат видео: AVI
Видео кодек: XviD
Аудио кодек:AC3
Видео: 720x400 (16:9), 25.000 fps,XviD build 73, ~2 176 kbps avg, 0.30 bit/pixel
Аудио: 48 kHz, AC3 Dolby Digital, 2/0 (L,R) ch, ~192 kbps avg (Ю. Сербин)
Фильм снят по книге Александра Мастерса, которая является биографией Стюарта Шортера.
General
Complete name : D:TempSTUART_A_LIFE_BACKWARDS.avi
Format : AVI
Format/Info : Audio Video Interleave
File size : 1.46 GiB
Duration : 1h 27mn
Overall bit rate : 2 377 Kbps
Writing application : VirtualDubMod 1.5.10.2 (build 2540/release)
Writing library : VirtualDubMod build 2540/release
Video
ID : 0
Format : MPEG-4 Visual
Format profile : Advanced Simple@L5
Format settings, BVOP : 1
Format settings, QPel : No
Format settings, GMC : No warppoints
Format settings, Matrix : Custom
Codec ID : XVID
Codec ID/Hint : XviD
Duration : 1h 27mn
Bit rate : 2 176 Kbps
Width : 720 pixels
Height : 400 pixels
Display aspect ratio : 16:9
Frame rate : 25.000 fps
Color space : YUV
Chroma subsampling : 4:2:0
Bit depth : 8 bits
Scan type : Progressive
Compression mode : Lossy
Bits/(Pixel*Frame) : 0.302
Stream size : 1.34 GiB (92%)
Writing library : XviD 73
Audio
ID : 1
Format : AC-3
Format/Info : Audio Coding 3
Mode extension : CM (complete main)
Format settings, Endianness : Big
Codec ID : 2000
Duration : 1h 27mn
Bit rate mode : Constant
Bit rate : 192 Kbps
Channel(s) : 2 channels
Channel positions : Front: L R
Sampling rate : 48.0 KHz
Bit depth : 16 bits
Compression mode : Lossy
Stream size : 121 MiB (8%)
Alignment : Split accross interleaves
Interleave, duration : 40 ms (1.00 video frame)
Interleave, preload duration : 500 ms
piratbit.pw



Скачать Стюарт: Прошлая жизнь через торрент http://s55.radikal.ru/i147/1308/49/1583aa972b5c.png Скачать фильм Стюарт: Прошлая жизнь через торрент бесплантно в хорошем качестве Описание: 2000 год. На одном из собраний благотворительной организации “Помоги бездомным” молодой интеллигент Алекс Мастерс (Бен ... 8.7 10 7
Info! Золотая раздача, скачанное не засчитывается.
Торрент: Зарегистрирован [2013-08-09 10:26] · скачан: 232 раз
Статус: √ проверено
Размер: 1.46 GB
Как cкачать? Как скачать Стюарт: Прошлая жизнь через торрент | UTorrent

28-11-2019 20:33  

Отключить всю рекламу на сайте

    Дорогой пользователь! Огромная просьба, поблагодарите релизера, оцените раздачу и оставьте свои комментарий, если Вы скачали Стюарт: Прошлая жизнь через торрент бесплатно! Внесите свою лепту в развитие PiratBit!
    Комментировать посты могут только пользователи прошедшие не сложную регистрацию
    Показать сообщения:    

    Стюарт: Прошлая жизнь через торрент
    Скачать бесплатно Стюарт: Прошлая жизнь
    Стюарт: Прошлая жизнь скачать торрент
    Стюарт: Прошлая жизнь смотреть онлайн
    Cкачать фильм Стюарт: Прошлая жизнь бесплатно
    Стюарт: Прошлая жизнь скачать торрент в хорошем качестве
    Стюарт: Прошлая жизнь смотреть онлайн бесплатно в хорошем качестве


    Вы не можете начинать темы
    Вы не можете отвечать на сообщения
    Вы не можете редактировать свои сообщения
    Вы не можете удалять свои сообщения
    Вы не можете голосовать в опросах
    Вы не можете прикреплять файлы к сообщениям
    Вы можете скачивать файлы