1 сезон

1 сезон

iTunes

1

iTunes

Кинопоиск HD

iTunes

13

1 сезон

RePack

30

Deluxe

ВАЖНО

ИГРА 18+

pack

RePack

MK11
pack

Легкие деньги

RePack

jed

RePack

fifa19

RePack

RDR2

RePack

NEED FOR SPEED™ PAYBACK

4 сезон

9 сезон

Бесстыжие 9 сезон

Все сериалы

все сериалы на PB.wtf

RePack

FAR CRY 5
  
Magnet ссылка

Киллер / Killshot (Джон Мэдден / John Madden) [ 2008 , США , триллер, драма, криминал , HDRip, DUB] piratbit.pw

Киллер через торрент piratbit.pw

Размер: 1.36 GB | Добавлен: 7 лет 9 мес. назад | Торрент скачан:94 раза
Скачать  

07-08-2013 20:42 Киллер Скачать торрент  

Киллер / Killshot Слоган: «Вчера она - свидетель. Сегодня - мишень.»
Год выпуска: 2008
Страна: США
Жанр: триллер, драма, криминал
Продолжительность: 01:35:10
Перевод: Профессиональный (полное дублирование)|R5|
Режиссер: Джон Мэдден / John Madden
В ролях: Дайан Лэйн (Carmen Colson), Микки Рурк (Armand «Blackbird» Degas), Томас Джейн (Wayne Colson), Джозеф Гордон-Левитт (Richie Nix), Розарио Доусон (Donna), Алексис Батлер (Girl in Hotel Room), Хэл Холбрук (Papa), Брэндон МакГибон (Blackbird's Kid Brother), Роберт Гоу (Prospective Buyer), Катрин Хэйос (Prospective Buyer), Питер Келли Годро (Blackbird's Brother), Крэйг Блэр (Construction Site Foreman)
Описание: Черный Дрозд - киллер. По его собственному признанию, он «отстреливает людей. Иногда за бабки, иногда просто так». Однажды, когда Черный Дрозд и его дружок Ричи отправились на дело - осуществить задуманное им помешали Кармен и Уэйн Колсоны. С этого момента супруги обречены, так как становятся очередной мишенью профессионального убийцы.

Рейтинг
kinopoisk.ru: 6.115 (3445)
imdb.com: 6.10 (14 777)
MPAA: R - Лицам до 17 лет обязательно присутствие взрослого
Мировая премьера: 13 ноября 2008
Релиз на DVD: 30 ноября 2010, «West Video»
  • Качество: HDRip
  • Формат: AVI
  • Видео кодек: XviD
  • Аудио кодек: AC3
  • Видео: XviD, 720x304 (2.35:1), 1595 kbps, 24 fps, 0,304 bpp
  • Аудио: AC3 / 5.1 / 48 kHz / 448 kbps / 16 bit
    • Кандидатуры Вигго Мортенсена и Джастина Тимберлэйка рассматривались на роли Уэйна Колсона и Ричи Никса соответственно.
    • Изначально съёмки должны были начаться в 2002 году. Тони Скотт должен был стать режиссером, Роберт Де Ниро и Квентин Тарантино - сыграть Арманда Дегаса и Ричи Никса соответственно.
    • Фильм был готов к выходу на экраны еще в 2006 году, однако дата релиза постоянно переносилась из-за постоянных пересъёмок.
    • Все сцены с участием Джонни Ноксвиля были вырезаны из фильма, т. к. во время тест-просмотров зрителям не понравился его персонаж.
    • еще 1 факт
    Сэмпл / Трейлер
    Format : AVI
    Format/Info : Audio Video Interleave
    File size : 1.36 GiB
    Duration : 1h 35mn
    Overall bit rate : 2 053 Kbps
    Movie name : Killshot
    Genre : Thriller, Drama, Crime
    Writing application : VirtualDubMod 1.5.10.3 | www.virtualdub-fr.org || (build 2550/release)
    Original source form/Name : Movie
    Comment : Rip ot kep

    Video
    ID : 0
    Format : MPEG-4 Visual
    Format profile : Advanced Simple@L5
    Format settings, BVOP : 1
    Format settings, QPel : No
    Format settings, GMC : No warppoints
    Format settings, Matrix : Default (MPEG)
    Codec ID : XVID
    Codec ID/Hint : XviD
    Duration : 1h 35mn
    Bit rate : 1 596 Kbps
    Width : 720 pixels
    Height : 304 pixels
    Display aspect ratio : 2.35:1
    Frame rate : 24.000 fps
    Color space : YUV
    Chroma subsampling : 4:2:0
    Bit depth : 8 bits
    Scan type : Progressive
    Compression mode : Lossy
    Bits/(Pixel*Frame) : 0.304
    Stream size : 1.06 GiB (78%)
    Writing library : XviD 73

    Audio
    ID : 1
    Format : AC-3
    Format/Info : Audio Coding 3
    Mode extension : CM (complete main)
    Codec ID : 2000
    Duration : 1h 35mn
    Bit rate mode : Constant
    Bit rate : 448 Kbps
    Channel(s) : 6 channels
    Channel positions : Front: L C R, Side: L R, LFE
    Sampling rate : 48.0 KHz
    Bit depth : 16 bits
    Compression mode : Lossy
    Stream size : 305 MiB (22%)
    Alignment : Split accross interleaves
    Interleave, duration : 42 ms (1.00 video frame)
    Interleave, preload duration : 500 ms
    piratbit.pw



  • Скачать Киллер через торрент http://i6.imageban.ru/out/2013/08/08/2211baf7ac2b64985b57d09e514b587c.png Скачать фильм Киллер через торрент бесплантно в хорошем качестве Описание: Черный Дрозд - киллер. По его собственному признанию, он «отстреливает людей. Иногда за бабки, иногда просто так». Однажды, когда ... 10 10 10
    Info! Золотая раздача, скачанное не засчитывается.
    Торрент: Зарегистрирован [2013-08-07 20:42] · скачан: 94 раз
    Статус: √ проверено
    Размер: 1.36 GB
    Как cкачать? Как скачать Киллер через торрент | UTorrent

    % Раздел Тема Автор DL S | L
    Фильмы 2006-2008 [ 1.38 GB ] Киллер / Killshot [2008 HDRip лицензия] SD Скачать
    1 | 0

    28-11-2019 20:33  

    Отключить всю рекламу на сайте

      Дорогой пользователь! Огромная просьба, поблагодарите релизера, оцените раздачу и оставьте свои комментарий, если Вы скачали Киллер через торрент бесплатно! Внесите свою лепту в развитие PiratBit!
      Комментировать посты могут только пользователи прошедшие не сложную регистрацию
      Показать сообщения:    

      Киллер через торрент
      Скачать бесплатно Киллер
      Киллер скачать торрент
      Киллер смотреть онлайн
      Cкачать фильм Киллер бесплатно
      Киллер скачать торрент в хорошем качестве
      Киллер смотреть онлайн бесплатно в хорошем качестве


      Вы не можете начинать темы
      Вы не можете отвечать на сообщения
      Вы не можете редактировать свои сообщения
      Вы не можете удалять свои сообщения
      Вы не можете голосовать в опросах
      Вы не можете прикреплять файлы к сообщениям
      Вы можете скачивать файлы