1 сезон

1 сезон

iTunes

1

iTunes

Кинопоиск HD

iTunes

13

1 сезон

RePack

30

Deluxe

ВАЖНО

ИГРА 18+

pack

RePack

MK11
pack

Легкие деньги

RePack

jed

RePack

fifa19

RePack

RDR2

RePack

NEED FOR SPEED™ PAYBACK

4 сезон

9 сезон

Бесстыжие 9 сезон

Все сериалы

все сериалы на PB.wtf

RePack

FAR CRY 5
  
Magnet ссылка

Десятидюймовый герой / Ten Inch Hero (Дэвид Маккэй / David Mackay) [2007, США, комедия, мелодрама, драма, DVDRip] MVO piratbit.pw

Десятидюймовый герой через торрент piratbit.pw

Размер: 747 MB | Добавлен: 7 лет 9 мес. назад | Торрент скачан:100 раз
Скачать  

04-08-2013 14:03 Десятидюймовый герой Скачать торрент  

Десятидюймовый герой / Ten Inch Hero
Год выпуска: 2007
Страна: США
Жанр: комедия, мелодрама, драма
Продолжительность: 01:42:08
Перевод: Профессиональный (многоголосый, закадровый)
Русские субтитры: нет

Режиссер: Дэвид Маккей / David Mackay

В ролях: Элизабет Хэрнойс, Клеа ДюВаль, Шон Патрик Флэнери, Дженсен Экклз, Дэннил Харрис, Элис Кридж, Джон Доу

Описание: В прибрежной закусочной старого хиппи Тракера, трудятся не покладая рук четверо молодых людей. Соблазнительная и ветреная Тиш, с головой ушедшая в поиски идеального мужчины. Одаренная художница Пайпер, приехавшая в город в надежде найти своего ребенка, которого когда-то отдала на усыновление. Джен – умная, добрая, но совершенно неприметная на фоне своих ярких подруг. И, наконец, Пристли - весельчак и балагур с пирсингом, кучей татуировок во всевозможных местах и разноцветным ирокезом.
У каждого из них есть заветная мечта. Каждый пришел в эту закусочную со своей целью, заметив яркую табличку «Требуются работники. «Нормальным» просьба не беспокоить». Найдут ли они здесь то, что искали? Наверняка, ведь каждый из них по-своему особенный.


Качество: DVDRip
Формат: AVI
Видео кодек: XviD
Аудио кодек: MP3
Видео: 656x368 (1.78:1), 23.976 fps, XviD build 50 ~884 kbps avg, 0.15 bit/pixel
Аудио: 48 kHz, MPEG Layer 3, 2 ch, ~128.00 kbps avg
Раздача от:
D:Ten.Inch.Hero.2007.DVDRip.745.by_dexter_lex.avi
General
Complete name : D:Ten.Inch.Hero.2007.DVDRip.745.by_dexter_lex.avi
Format : AVI
Format/Info : Audio Video Interleave
File size : 747 MiB
Duration : 1h 42mn
Overall bit rate : 1 022 Kbps
Writing application : VirtualDubMod 1.5.10.3 | www.virtualdub-fr.org || (build 2550/release)
Writing library : VirtualDubMod build 2550/release
Video #0
ID : 0
Format : MPEG-4 Visual
Format profile : Advanced Simple@L5
Format settings, BVOP : 1
Format settings, QPel : No
Format settings, GMC : No warppoints
Format settings, Matrix : Custom
Codec ID : XVID
Codec ID/Hint : XviD
Duration : 1h 42mn
Bit rate : 885 Kbps
Width : 656 pixels
Height : 368 pixels
Display aspect ratio : 16:9
Frame rate : 23.976 fps
Color space : YUV
Chroma subsampling : 4:2:0
Bit depth : 8 bits
Scan type : Progressive
Compression mode : Lossy
Bits/(Pixel*Frame) : 0.153
Stream size : 647 MiB (87%)
Writing library : XviD 1.2.1 (UTC 2008-12-04)
Audio #1
ID : 1
Format : MPEG Audio
Format version : Version 1
Format profile : Layer 3
Codec ID : 55
Codec ID/Hint : MP3
Duration : 1h 42mn
Bit rate mode : Constant
Bit rate : 128 Kbps
Channel(s) : 2 channels
Sampling rate : 48.0 KHz
Compression mode : Lossy
Stream size : 93.5 MiB (13%)
Alignment : Aligned on interleaves
Interleave, duration : 42 ms (1.00 video frame)
Interleave, preload duration : 504 ms
Writing library : LAME3.99r
Encoding settings : -m s -V 4 -q 2 -lowpass 17 -b 128
piratbit.pw



Скачать Десятидюймовый герой через торрент http://lostpic.net/orig_images/c/5/f/c5f5d6662795b1a326db0c95c19c7324.jpg Скачать фильм Десятидюймовый герой через торрент бесплантно в хорошем качестве Описание: В прибрежной закусочной старого хиппи Тракера, трудятся не покладая рук четверо молодых людей. Соблазнительная и ветреная Тиш, с ... 9 10 5
Info! Золотая раздача, скачанное не засчитывается.
Торрент: Зарегистрирован [2013-08-04 14:03] · скачан: 100 раз
Статус: √ проверено
Размер: 747 MB
Как cкачать? Как скачать Десятидюймовый герой через торрент | UTorrent

% Раздел Тема Автор DL S | L
Фильмы 2006-2008 [ 1.45 GB ] Десятидюймовый герой / Ten Inch Hero [2007 DVDRip-AVC] MVO dexter lex Скачать
1 | 0

28-11-2019 20:33  

Отключить всю рекламу на сайте

04-08-2013 14:37 Десятидюймовый герой Скачать торрент  

Фильм супер, с девушкой посмотреть самое то) Всем советую.piratbit.pw



30-11-2013 08:05 Десятидюймовый герой Скачать торрент  

не шедевр но на 1разок норм !!! раздата спс !!!piratbit.pw



26-03-2015 13:03 Десятидюймовый герой Скачать торрент  

Сойдет :gamer2:piratbit.pw



    Дорогой пользователь! Огромная просьба, поблагодарите релизера, оцените раздачу и оставьте свои комментарий, если Вы скачали Десятидюймовый герой через торрент бесплатно! Внесите свою лепту в развитие PiratBit!
    Комментировать посты могут только пользователи прошедшие не сложную регистрацию
    Показать сообщения:    

    Десятидюймовый герой через торрент
    Скачать бесплатно Десятидюймовый герой
    Десятидюймовый герой скачать торрент
    Десятидюймовый герой смотреть онлайн
    Cкачать фильм Десятидюймовый герой бесплатно
    Десятидюймовый герой скачать торрент в хорошем качестве
    Десятидюймовый герой смотреть онлайн бесплатно в хорошем качестве


    Вы не можете начинать темы
    Вы не можете отвечать на сообщения
    Вы не можете редактировать свои сообщения
    Вы не можете удалять свои сообщения
    Вы не можете голосовать в опросах
    Вы не можете прикреплять файлы к сообщениям
    Вы можете скачивать файлы