1 сезон

1 сезон

iTunes

1

КиноПоиск HD

Кинопоиск HD

iTunes

13

1 сезон

RePack

30

Новинка

ВАЖНО

ИГРА 18+

pack

RePack

MK11
pack

Легкие деньги

RePack

jed

RePack

fifa19

RePack

RDR2

RePack

NEED FOR SPEED™ PAYBACK

4 сезон

9 сезон

Бесстыжие 9 сезон

Все сериалы

все сериалы на PB.wtf

RePack

FAR CRY 5
  
Magnet ссылка

Роммель / Rommel (Николаус Штейн фон Каменски / Nikolaus Stein von Kamienski) [2012, Германия, Франция, Австрия, боевик, драма, военный, HDRip, Авторский (Сербин Юрий) ] piratbit.pw

Роммель через торрент piratbit.pw

Размер: 1.46 GB | Добавлен: 7 лет 8 мес. назад | Торрент скачан:414 раз
Скачать  

03-08-2013 08:40 Роммель Скачать торрент  

Роммель / Rommel


  • Год выпуска:2012
  • Страна:Германия, Франция, Австрия
  • Жанр:боевик, драма, военный, биография, история
  • Продолжительность: 01:58:38
  • Перевод:Авторский (Сербин Юрий)

  • Субтитры: Нет
    • Режиссер:Николаус Штейн фон Каменски / Nikolaus Stein von Kamienski

  • В ролях:Ульрих Тукур (Erwin Rommel), Тим Бергманн (Oberstleutnant Hofacker), Рольф Канис (Oberst Finckh), Артур Клемт (Helmut Knochen), Томас Лимпинзель (Horst), Патрик Мёллекен (Manfred Rommel), Роберт Шупп (Aldinger), Питер Вульф (Kaltenbrunner), Хабертус Хартманн (Carl-Heinrich von Stülpnagel), Клаус Й. Берендт (General Guderian), Михаэль Кранц (Fahrer Karl Daniel), Ганс Кремер (General Marcks)
    • Описание:
      В январе 1944 Роммель был назначен командующим группой армий «В» в Северной Франции. Он попытался сделать «Атлантический вал» серьёзным препятствием для противника. Однако из-за стратегических разногласий с командующим всей войсковой группировкой во Франции - фельдмаршалом Рундштедтом, единый план обороны западной границы рейха не был выработан, что и привело к неоперативности и несогласованности действий немецких войск во время высадки союзников в Нормандии 6 июня 1944 года.

  • Рейтинг
    imdb.com: 6.10 (288)
    • Качество:HDRip
    • Формат:AVI
    • Видео кодек: XviD
    • Аудио кодек: AC3
    • Видео: XviD, 720x400 (16:9), 1369 kbps, 25 fps, 0,190 bpp
    • Аудио: AC3 / 2.0 / 48 kHz / 384 kbps / 16 bit


    General
    Complete name : D:ТорентыRommel.2012.HDRip.avi
    Format : AVI
    Format/Info : Audio Video Interleave
    File size : 1.46 GiB
    Duration : 1h 58mn
    Overall bit rate : 1 764 Kbps
    Writing application : VirtualDubMod 1.5.10.2 (build 2540/release)
    Writing library : VirtualDubMod build 2540/release

    Video
    ID : 0
    Format : MPEG-4 Visual
    Format profile : Advanced Simple@L5
    Format settings, BVOP : 2
    Format settings, QPel : No
    Format settings, GMC : No warppoints
    Format settings, Matrix : Default (MPEG)
    Codec ID : XVID
    Codec ID/Hint : XviD
    Duration : 1h 58mn
    Bit rate : 1 370 Kbps
    Width : 720 pixels
    Height : 400 pixels
    Display aspect ratio : 16:9
    Frame rate : 25.000 fps
    Color space : YUV
    Chroma subsampling : 4:2:0
    Bit depth : 8 bits
    Scan type : Progressive
    Compression mode : Lossy
    Bits/(Pixel*Frame) : 0.190
    Stream size : 1.14 GiB (78%)
    Writing library : XviD 1.2.1 (UTC 2008-12-04)

    Audio
    ID : 1
    Format : AC-3
    Format/Info : Audio Coding 3
    Mode extension : CM (complete main)
    Codec ID : 2000
    Duration : 1h 58mn
    Bit rate mode : Constant
    Bit rate : 384 Kbps
    Channel(s) : 2 channels
    Channel positions : Front: L R
    Sampling rate : 48.0 KHz
    Bit depth : 16 bits
    Compression mode : Lossy
    Stream size : 326 MiB (22%)
    Alignment : Split accross interleaves
    Interleave, duration : 40 ms (1.00 video frame)
    Interleave, preload duration : 500 ms


    © Оформление by Vetalpiratbit.pw



  • Скачать Роммель через торрент http://i1.imageban.ru/out/2013/08/03/ad0e237f3980653e19332ca047457abe.jpg Скачать фильм Роммель через торрент бесплантно в хорошем качестве Описание:В январе 1944 Роммель был назначен командующим группой армий «В» в Северной Франции. Он попытался сделать «Атлантический вал» ... 9.8 10 19
    Info! Золотая раздача, скачанное не засчитывается.
    Торрент: Зарегистрирован [2013-08-03 08:40] · скачан: 414 раз
    Статус: √ проверено
    Размер: 1.46 GB
    Как cкачать? Как скачать Роммель через торрент | UTorrent

    % Раздел Тема Автор DL S | L
    Фильмы с авторской озвучкой [ 3.39 GB ] Роммель / Rommel [2012 Историческая военный биография BDRip-AVC] AVO mihis Скачать
    2 | 0

    28-11-2019 20:33  

    Отключить всю рекламу на сайте

    03-08-2013 09:32 Роммель Скачать торрент  

    Спасибки,заценим piratbit.pw



    03-08-2013 16:35 Роммель Скачать торрент  

    Спасибо большое!!!piratbit.pw



      Дорогой пользователь! Огромная просьба, поблагодарите релизера, оцените раздачу и оставьте свои комментарий, если Вы скачали Роммель через торрент бесплатно! Внесите свою лепту в развитие PiratBit!
      Комментировать посты могут только пользователи прошедшие не сложную регистрацию
      Показать сообщения:    

      Роммель через торрент
      Скачать бесплатно Роммель
      Роммель скачать торрент
      Роммель смотреть онлайн
      Cкачать фильм Роммель бесплатно
      Роммель скачать торрент в хорошем качестве
      Роммель смотреть онлайн бесплатно в хорошем качестве


      Вы не можете начинать темы
      Вы не можете отвечать на сообщения
      Вы не можете редактировать свои сообщения
      Вы не можете удалять свои сообщения
      Вы не можете голосовать в опросах
      Вы не можете прикреплять файлы к сообщениям
      Вы можете скачивать файлы