1 сезон

3 сезон

iTunes

1

iTunes

DUB Netflix

iTunes

13

1 сезон

RePack

30

Deluxe

pack

Легкие деньги

ВАЖНО

ИГРА 18+

pack

RePack

MK11

RePack

jed

RePack

fifa19

RePack

RDR2

RePack

NEED FOR SPEED™ PAYBACK

4 сезон

9 сезон

Бесстыжие 9 сезон

Все сериалы

все сериалы на PB.wtf

RePack

FAR CRY 5

Anonymous, доброй ночи, мы не успеваем до 1 числа собрать деньги на оплату серверов, помогите нам пожалуйста в это трудное время. В качестве благодарности мы отключим Вам всю рекламу на сайте (укажите свой ник в строку Ваше имя)!

×
  
Magnet ссылка

Вне закона / Outlaw (Ник Лав / Nick Love) [2007 г., Криминальная драма, экшн, HDRip] Dub |лицензия| piratbit.pw

Вне закона через торрент piratbit.pw

Размер: 1.46 GB | Добавлен: 7 лет 10 мес. назад | Торрент скачан:128 раз
Скачать  

01-08-2013 16:26 Вне закона Скачать торрент  

Вне закона / Outlaw

«There will be no excuses. The guilty will be punished. No one is above OUTLAW»

  • Год выпуска:2007
  • Страна:Великобритания
  • Жанр:боевик, триллер, драма, криминал
  • Продолжительность: 01:45:06
  • Перевод:Профессиональный (полное дублирование) |Лицензия|

  • Субтитры: Нет
    • Режиссер:Ник Лав / Nick Love

  • В ролях:Шон Бин (Danny Bryant), Дэнни Дайер (Gene Dekker), Ленни Джеймс (Cedric Munroe), Шон Харрис (Simon Hillier), Руперт Френд (Sandy Mardell), Боб Хоскинс (Walter Lewis), Сэлли Бреттон (Kelly), Джо Джексон (Subaru Kid 1), Игорь Смилжевич (Subaru Kid 2), Джеймс Фарбелл (Subaru Kid 3), Эмили Маитлис (играет саму себя), Шэйн Риз (Kid 1)
    • Описание:
      На городских улицах хозяйничают банды «бритоголовых». В контролируемые ими районы полиция не рискует заглядывать. Мирные обыватели, натерпевшись от дикого разгула головорезов, вынуждены давать отпор самостоятельно. Они создают свою антибанду. Но не имея никакого опыта в жестоких разборках, смельчаки приглашают ветерана иракской войны Брайанта, недавно вернувшегося из армии.
      Вполне разочаровавшийся в гражданской жизни и обуреваемый желанием поменять её несправедливые устои, Брайант берётся закалять новичков. Изуверскими приемами и садистскими методами он добивается успеха, сделав из обычных людей «уличных солдат». Но вскоре выясняется, что новые защитники справедливости сами стали заложниками жестокости. Желание и умение творить насилие оказывается самой страшной ловушкой...

  • Рейтинг
    kinopoisk.ru: 6.545 (1208)
    imdb.com: 5.80 (8 886)
    MPAA: R - Лицам до 17 лет обязательно присутствие взрослого
    • Качество:HDRip
    • Формат:AVI
    • Видео кодек: XviD
    • Аудио кодек: AC3
    • Видео: XviD, 720x304 (2.35:1), 1595 kbps, 23,976 fps, 0,304 bpp
    • Аудио: AC3 / 5.1 / 48 kHz / 384 kbps / 16 bit

    General
    Complete name : D:ТорентыVne.zakona.2007.XviD.HDRip.-Allfilms.avi
    Format : AVI
    Format/Info : Audio Video Interleave
    File size : 1.46 GiB
    Duration : 1h 45mn
    Overall bit rate : 1 984 Kbps
    Movie name : Вне закона / Outlaw [2007]
    Director : Юpист
    Genre : криминальная драма, экшн
    Writing application : VirtualDubMod 1.5.10.3 | www.virtualdub-fr.org || (build 2550/release)
    Writing library : VirtualDubMod build 2550/release
    Copyright : RG All Films [rutracker.org]
    Comment : Режиссер фильма Ник Лав писал сценарий, основанный на фактах из газетных историй. Большинство инцидентов, показанных в фильме, происходили в реальности.

    Video
    ID : 0
    Format : MPEG-4 Visual
    Format profile : Advanced Simple@L5
    Format settings, BVOP : 1
    Format settings, QPel : No
    Format settings, GMC : No warppoints
    Format settings, Matrix : Custom
    Codec ID : XVID
    Codec ID/Hint : XviD
    Duration : 1h 45mn
    Bit rate : 1 596 Kbps
    Width : 720 pixels
    Height : 304 pixels
    Display aspect ratio : 2.35:1
    Frame rate : 23.976 fps
    Color space : YUV
    Chroma subsampling : 4:2:0
    Bit depth : 8 bits
    Scan type : Progressive
    Compression mode : Lossy
    Bits/(Pixel*Frame) : 0.304
    Stream size : 1.17 GiB (80%)
    Writing library : XviD 65

    Audio
    ID : 1
    Format : AC-3
    Format/Info : Audio Coding 3
    Mode extension : CM (complete main)
    Codec ID : 2000
    Duration : 1h 43mn
    Bit rate mode : Constant
    Bit rate : 384 Kbps
    Channel(s) : 6 channels
    Channel positions : Front: L C R, Side: L R, LFE
    Sampling rate : 48.0 KHz
    Bit depth : 16 bits
    Compression mode : Lossy
    Stream size : 285 MiB (19%)
    Alignment : Split accross interleaves
    Interleave, duration : 42 ms (1.01 video frame)
    Interleave, preload duration : 500 ms
    Title : RUS - DVO

    © Оформление&Постер by Vetalpiratbit.pw



  • Скачать Вне закона через торрент https://pic1.kartinco.top/images/23/oycv1oikiw.png Скачать фильм Вне закона через торрент бесплантно в хорошем качестве Описание:На городских улицах хозяйничают банды «бритоголовых». В контролируемые ими районы полиция не рискует заглядывать. Мирные ... 9.9 10 7
    Info! Золотая раздача, скачанное не засчитывается.
    Торрент: Зарегистрирован [2013-08-01 16:26] · скачан: 128 раз
    Статус: √ проверено
    Размер: 1.46 GB
    Как cкачать? Как скачать Вне закона через торрент | UTorrent

    28-11-2019 20:33  

    Отключить всю рекламу на сайте

    01-08-2013 18:06 Вне закона Скачать торрент  

    интересное кино?piratbit.pw



    02-08-2013 20:42 Вне закона Скачать торрент  

    отличный фильмpiratbit.pw



      Дорогой пользователь! Огромная просьба, поблагодарите релизера, оцените раздачу и оставьте свои комментарий, если Вы скачали Вне закона через торрент бесплатно! Внесите свою лепту в развитие PiratBit!
      Комментировать посты могут только пользователи прошедшие не сложную регистрацию
      Показать сообщения:    

      Вне закона через торрент
      Скачать бесплатно Вне закона
      Вне закона скачать торрент
      Вне закона смотреть онлайн
      Cкачать фильм Вне закона бесплатно
      Вне закона скачать торрент в хорошем качестве
      Вне закона смотреть онлайн бесплатно в хорошем качестве


      Вы не можете начинать темы
      Вы не можете отвечать на сообщения
      Вы не можете редактировать свои сообщения
      Вы не можете удалять свои сообщения
      Вы не можете голосовать в опросах
      Вы не можете прикреплять файлы к сообщениям
      Вы можете скачивать файлы