Мега распродажа FORZA HORIZON 4 ULTIMATE+ВСЕ DLC+ОНЛАЙН всего за 499р. 349 руб. (супер цена). Внимание количество ограничено!!!

iTunes

1+1

iTunes

мы

iTunes

1

1 сезон

Чернобыль

1 сезон

Ральф против интернета

Лицензия

ПШазам

8 сезон

Игра престолов

Лицензия

30
pack

ВАЖНО

!!Акция!!

Alien_RageХит недели

RePack

Resident Evil 21

ИГРА 18+

pack

RePack

Metro:Exodus

!!Акция!!

Alien_Rage

RePack

fifa19

RePack

Assassins Creed: Odyssey

RePack

NEED FOR SPEED™ PAYBACK

3 сезон

9 сезон

Бесстыжие 9 сезон

Все сериалы

все сериалы на PB.wtf

RePack

FAR CRY 5
Ребята, катастрофически не хватает 2730р. для оплаты серверов за ИЮНЬ (всвязи с блокировками трафик упал в 3 раза), 1-2р., выручайте.
  

Каникулы для гангстера / Vacanze col gangster (Дино Ризи / Dino Risi) [1954, комедия, TVRip] [AVO] (Ю.Медведев) piratbit.pw

Каникулы для гангстера через торрент piratbit.pw

Размер: 1.02 GB | Добавлен: 5 лет 11 мес. назад | Торрент скачан:22 раза
Скачать  

31-07-2013 11:09 Каникулы для гангстера Скачать торрент  

Каникулы для гангстера / Vacanze col gangster
Год выпуска: 1954
Страна: Италия
Жанр: комедия
Продолжительность: 01:10:45
Перевод: Авторский (одноголосый закадровый) [Ю.Медведев]
Cубтитры: английские
Оригинальная аудиодорожка: итальянский

Режиссер: Дино Ризи / Dino Risi

В ролях: Марк Лоуренс, Джованна Пала, Теренс Хилл, Ламберто Маджорани, Gaetano Pessina, Лучиано Карузо, Alfredo Baldieri, Антонио Бакчи, Дина Пербеллини, Анна Арена

Описание: Во время летних каникул пятеро школьников находят записку, автор которой сидит в тюрьме и утверждает, что осужден незаконно. Ребята разрабатывают план, чтобы помочь ему бежать. Записка, адресованная заключенному № 5823, запеченная в пироге, случайно попадает к заключенному № 6211, который на самом деле является гангстером и осужден вполне обосновано. Дружки гангстера сами в это же время планируют организовать для него побег... А далее история развивается по законам криминально-комедийного жанра. В роли одного из школьников снялся Теренс Хилл, в те годы выступавший под своим настоящим именем - Марио Джиротти.



Качество видео: TVRip
Формат видео: AVI
Видео кодек: XviD
Аудио кодек: MP3
Видео: 720x576 (1.25:1), 25 fps, XviD build 50 ~1809 kbps avg, 0.17 bit/pixel
Аудио: 44.100 kHz, MPEG Layer 3, 2 ch, ~256.00 kbps avg [Ю.Медведев]

Автор рипа: Kn15
За основу данной сборки взят TVRip автора под ником rulle1.
Перевод на русский язык Ю.Медведева.
E:INTERNET Каникулы для гангстера.1954.TVRip.[AVO].avi
General
Complete name : E:INTERNET Каникулы для гангстера.1954.TVRip.[AVO].avi
Format : AVI
Format/Info : Audio Video Interleave
Format profile : OpenDML
File size : 1.02 GiB
Duration : 1h 10mn
Overall bit rate : 2 072 Kbps
Writing application : Lavf52.93.0
Video #0
ID : 0
Format : xvid
Codec ID : xvid
Duration : 1h 10mn
Bit rate : 1 800 Kbps
Width : 720 pixels
Height : 576 pixels
Display aspect ratio : 4:3
Frame rate : 25.000 fps
Standard : PAL
Bits/(Pixel*Frame) : 0.174
Stream size : 911 MiB (87%)
Audio #1
ID : 1
Format : MPEG Audio
Format version : Version 1
Format profile : Layer 3
Mode : Joint stereo
Mode extension : MS Stereo
Codec ID : 55
Codec ID/Hint : MP3
Duration : 1h 10mn
Bit rate mode : Constant
Bit rate : 256 Kbps
Channel(s) : 2 channels
Sampling rate : 44.1 KHz
Compression mode : Lossy
Stream size : 130 MiB (12%)
Alignment : Aligned on interleaves
Interleave, duration : 26 ms (0.65 video frame)
piratbit.pw



Скачать Каникулы для гангстера через торрент http://i47.fastpic.ru/big/2013/0729/f9/457caffa240c3e4f438725934e0c97f9.jpg Скачать фильм Каникулы для гангстера через торрент бесплантно в хорошем качестве Описание: Во время летних каникул пятеро школьников находят записку, автор которой сидит в тюрьме и утверждает, что осужден незаконно. ... 10 10 6
Info! Золотая раздача, скачанное не засчитывается.
Торрент: Зарегистрирован [2013-07-31 11:09] · скачан: 22 раз
Статус: √ проверено
Размер: 1.02 GB
Как cкачать? Как скачать Каникулы для гангстера через торрент | qTorrent


>> Регистрируемся здесь <<






Отзывы и комментарии о схеме читаем и пишем здесь: ---> Отзывы и комментарии о схеме

Новые благодарочки в телеграм довольных пользователей:
скриншот   скриншот   скриншот   скриншот   скриншот
    Дорогой пользователь! Огромная просьба, поблагодарите релизера, оцените раздачу и оставьте свои комментарий, если Вы скачали Каникулы для гангстера через торрент бесплатно! Внесите свою лепту в развитие PiratBit!
    Комментировать посты могут только пользователи прошедшие не сложную регистрацию
    Показать сообщения:    

    Каникулы для гангстера через торрент
    Скачать бесплатно Каникулы для гангстера
    Каникулы для гангстера скачать торрент
    Каникулы для гангстера смотреть онлайн
    Cкачать фильм Каникулы для гангстера бесплатно
    Каникулы для гангстера скачать торрент в хорошем качестве
    Каникулы для гангстера смотреть онлайн бесплатно в хорошем качестве


    Вы не можете начинать темы
    Вы не можете отвечать на сообщения
    Вы не можете редактировать свои сообщения
    Вы не можете удалять свои сообщения
    Вы не можете голосовать в опросах
    Вы не можете прикреплять файлы к сообщениям
    Вы можете скачивать файлы