1 сезон

1 сезон

iTunes

1

КиноПоиск HD

Кинопоиск HD

iTunes

13

1 сезон

RePack

30

Deluxe

ВАЖНО

ИГРА 18+

pack

RePack

MK11
pack

Легкие деньги

RePack

jed

RePack

fifa19

RePack

RDR2

RePack

NEED FOR SPEED™ PAYBACK

4 сезон

9 сезон

Бесстыжие 9 сезон

Все сериалы

все сериалы на PB.wtf

RePack

FAR CRY 5
  
Magnet ссылка

Грайндхаус / Grindhouse (Роберт Родригес, Элай Рот ,Квентин Тарантино) [2007 г., боевик, триллер, ужасы, BDRip, VO] piratbit.pw

Грайндхаус через торрент piratbit.pw

Размер: 4.36 GB | Добавлен: 7 лет 9 мес. назад | Торрент скачан:87 раз
Скачать  

31-07-2013 07:18 Грайндхаус Скачать торрент  

Грайндхаус / Grindhouse
Год выпуска: 2007
Страна: США
Жанр: боевик, триллер, ужасы,
Продолжительность: 03:11:14
Перевод: Любительский одноголосый
Субтитры: русские (Stevvie), английские

Режиссер: Роберт Родригес Элай Рот Квентин Тарантино
Продюссер: Элизабет Авеллан, Роб Коттерилл, Дэниэл С. Фриш
Сценарий: Роберт Родригес, Роб Зомби, Эдгар Райт

Бюджет: $67 000 000
Премьера в мире: 6 апреля 2007

R - Лицам до 17 лет обязательно присутствие взрослого




В ролях: Роуз МакГоун, Курт Рассел, Мэри Элизабет Уинстэд, Зои Белл, Розарио Доусон, Квентин Тарантино, Джош Бролин, Фредди Родригес, Марли Шелтон, Дэнни Трехо, Брюс Уиллис,

Описание: Первый фильм - от Роберта Родригеса - про страшную чуму и толпы бешеных мертвецов. Здесь вам и черный юмор, и море кровищи, и красивые девушки с пушками, которые весят столько же, сколько они сами; количество взрывов - не менее двух на квадратный метр, ну и еще кое-что покрепче. Второй фильм - от Квентина Тарантино - рассказывает историю о маньяке-каскадере Майке, который охотится за красивыми девушками и в качестве орудия убийства использует свой гоночный автомобиль. Также ко всему этому в перерыве между фильмами представлены рекламные ролики к несуществующим картинам.

Доп. информация: Оригинальная версия фильма — в таком виде его показывали в США. Это именно то, что изначально задумывалось Родригесом и Тарантино (два фильма вместе + трейлеры между ними).

Качество: BDRip
Формат: AVI
Видео кодек: XviD
Аудио кодек: AC3
Видео: 720x304 (2.37:1), 23.976 fps,1915 kbps
Аудио#1: 48 kHz, Dolby Digital, 3/2 (L,C,R,l,r) + LFE ch, ~448.00 kbps avg Doctor Joker по переводу Stevvie ( ненормативная лексика)
Аудио#2: 48 kHz, Dolby Digital, 3/2 (L,C,R,l,r) + LFE ch, ~448.00 kbps avg VadimNaz
Аудио#3: 48 kHz, Dolby Digital, 3/2 (L,C,R,l,r) + LFE ch, ~448.00 kbps avg eng




E:киноГрайндхаус GrindhouseGrajndhaus.2007.TRIPLE.BDRip.XviD.AC3Grajndhaus.2007.TRIPLE.BDRip.XviD.AC3..avi
General
Complete name : E:киноГрайндхаус GrindhouseGrajndhaus.2007.TRIPLE.BDRip.XviD.AC3Grajndhaus.2007.TRIPLE.BDRip.XviD.AC3..avi
Format : AVI
Format/Info : Audio Video Interleave
Format profile : OpenDML
File size : 4.36 GiB
Duration : 3h 11mn
Overall bit rate : 3 265 Kbps
Movie name : Grajndhaus.2007.TRIPLE.BDRip.XviD.AC3.
Director : Joker
Genre : ужасы, фантастика, боевик
Writing application : VirtualDubMod 1.5.10.2 (build 2542/release)

Comment : 9.07.12
Video #0
ID : 0
Format : MPEG-4 Visual

Format settings, BVOP : 1
Format settings, QPel : No
Format settings, GMC : No warppoints
Format settings, Matrix : Custom
Codec ID : XVID
Codec ID/Hint : XviD
Duration : 3h 11mn
Bit rate : 1 904 Kbps
Width : 720 pixels
Height : 304 pixels
Display aspect ratio : 2.35:1
Frame rate : 23.976 fps
Color space : YUV
Chroma subsampling : 4:2:0
Bit depth : 8 bits
Scan type : Progressive
Compression mode : Lossy
Bits/(Pixel*Frame) : 0.363
Stream size : 2.54 GiB (58%)
Writing library : XviD 72
Audio #1
ID : 1
Format : AC-3
Format/Info : Audio Coding 3
Mode extension : CM (complete main)
Format settings, Endianness : Big
Codec ID : 2000
Duration : 3h 11mn
Bit rate mode : Constant
Bit rate : 448 Kbps
Channel(s) : 6 channels
Channel positions : Front: L C R, Side: L R, LFE
Sampling rate : 48.0 KHz
Bit depth : 16 bits
Compression mode : Lossy
Stream size : 613 MiB (14%)
Alignment : Split accross interleaves
Interleave, duration : 42 ms (1.00 video frame)
Interleave, preload duration : 500 ms
Audio #2
ID : 2
Format : AC-3
Format/Info : Audio Coding 3
Mode extension : CM (complete main)
Format settings, Endianness : Big
Codec ID : 2000
Duration : 3h 11mn
Bit rate mode : Constant
Bit rate : 448 Kbps
Channel(s) : 6 channels
Channel positions : Front: L C R, Side: L R, LFE
Sampling rate : 48.0 KHz
Bit depth : 16 bits
Compression mode : Lossy
Stream size : 613 MiB (14%)
Alignment : Split accross interleaves
Interleave, duration : 42 ms (1.00 video frame)
Interleave, preload duration : 500 ms
Audio #3
ID : 3
Format : AC-3
Format/Info : Audio Coding 3
Mode extension : CM (complete main)
Format settings, Endianness : Big
Codec ID : 2000
Duration : 3h 11mn
Bit rate mode : Constant
Bit rate : 448 Kbps
Channel(s) : 6 channels
Channel positions : Front: L C R, Side: L R, LFE
Sampling rate : 48.0 KHz
Bit depth : 16 bits
Compression mode : Lossy
Stream size : 613 MiB (14%)
Alignment : Split accross interleaves
Interleave, duration : 42 ms (1.00 video frame)
Interleave, preload duration : 500 ms


Грайндхаус скачать торрент


piratbit.pw



Скачать Грайндхаус через торрент https://pic1.kartinco.top/images/23/xest8phgiq.jpg Скачать фильм Грайндхаус через торрент бесплантно в хорошем качестве Описание: Первый фильм - от Роберта Родригеса - про страшную чуму и толпы бешеных мертвецов. Здесь вам и черный юмор, и море кровищи, и ... 8.7 10 7
Info! Золотая раздача, скачанное не засчитывается.
Торрент: Зарегистрирован [2013-07-31 07:18] · скачан: 87 раз
Статус: √ проверено
Размер: 4.36 GB
Как cкачать? Как скачать Грайндхаус через торрент | UTorrent

% Раздел Тема Автор DL S | L
Фильмы с авторской озвучкой [ 5.38 GB ] Грайндхаус / Grindhouse [2007 BDRip by msltel] 2 x VO msltel Скачать
1 | 0
Фильмы с авторской озвучкой [ 8.01 GB ] Грайндхаус / Grindhouse [2007 BDRip 720p by msltel] 2 x VO msltel Скачать
1 | 0
Порно фильмы с русским переводом [ 1.44 GB ] Грайндхаус XXX: Двойной сеанс / Grindhouse XXX: A Double Feature [2011 Feature DVDRip одноголосый] Pir@tya2010 Скачать
1 | 0
Фильмы (Blu-ray, BD-Remux, HDDVD) [ 47.12 GB ] Грайндхаус / Grindhouse [2007 BDRemux 1080p] 2xVO + Original + Sub Assasinca Скачать
1 | 0
Фильмы (Blu-ray, BD-Remux, HDDVD) [ 47.12 GB ] Грайндхаус / Grindhouse [2007 BDRemux VO] Анонимный Скачать
1 | 0
Фильмы 2006-2008 [ 2.9 GB ] Грайндхаус / Grindhouse [2007 BDRip] |Theatrical Cut| + VO Mr. Freeman Скачать
1 | 0
Фильмы (Blu-ray, BD-Remux, HDDVD) [ 47.12 GB ] Грайндхаус / Grindhouse [2007 BDRemux 1080p] 2xVO + Original + Sub Mr. Freeman Скачать
1 | 0


Последний раз редактировалось: Assasinca (2013-07-31 13:22), всего редактировалось 2 раз(а)

28-11-2019 20:33  

Отключить всю рекламу на сайте

31-07-2013 07:46 Грайндхаус Скачать торрент  

озвучка трейлера лолpiratbit.pw



31-07-2013 09:13 Грайндхаус Скачать торрент  

заменила трейлерpiratbit.pw



    Дорогой пользователь! Огромная просьба, поблагодарите релизера, оцените раздачу и оставьте свои комментарий, если Вы скачали Грайндхаус через торрент бесплатно! Внесите свою лепту в развитие PiratBit!
    Комментировать посты могут только пользователи прошедшие не сложную регистрацию
    Показать сообщения:    

    Грайндхаус через торрент
    Скачать бесплатно Грайндхаус
    Грайндхаус скачать торрент
    Грайндхаус смотреть онлайн
    Cкачать фильм Грайндхаус бесплатно
    Грайндхаус скачать торрент в хорошем качестве
    Грайндхаус смотреть онлайн бесплатно в хорошем качестве


    Вы не можете начинать темы
    Вы не можете отвечать на сообщения
    Вы не можете редактировать свои сообщения
    Вы не можете удалять свои сообщения
    Вы не можете голосовать в опросах
    Вы не можете прикреплять файлы к сообщениям
    Вы можете скачивать файлы