1 сезон

1 сезон

iTunes

1

КиноПоиск HD

Кинопоиск HD

iTunes

13

1 сезон

RePack

30

Новинка

ВАЖНО

ИГРА 18+

pack

RePack

MK11
pack

Легкие деньги

RePack

jed

RePack

fifa19

RePack

RDR2

RePack

NEED FOR SPEED™ PAYBACK

4 сезон

9 сезон

Бесстыжие 9 сезон

Все сериалы

все сериалы на PB.wtf

RePack

FAR CRY 5
  
Magnet ссылка

Полный облом / Big Nothing (Жан-Баптист Андреа / Jean-Baptiste Andrea) [2006 г., триллер, комедия, криминал, BDRip] [AVO] (А. Карповский) piratbit.pw

Полный облом через торрент piratbit.pw

Размер: 1.45 GB | Добавлен: 7 лет 9 мес. назад | Торрент скачан:244 раза
Скачать  

18-07-2013 13:30 Полный облом Скачать торрент  


Полный облом
Big Nothing


Год выпуска: 2006
Страна: Великобритания
Жанр: триллер, комедия, криминал
Продолжительность: 01:25:33
Перевод: Авторский (одноголосный) [А. Карповский]
Русские субтитры: отсутствуют

Режиссеры: Жан-Баптист Андреа / Jean-Baptiste Andrea

В ролях: Дэвид Швиммер/David Schwimmer, Саймон Пегг/Simon Pegg, Элис Ив/Alice Eve, Джон Полито/Jon Polito, Наташа МакЭлхоун/Natascha McElhone, Мими Роджерс/Mimi Rogers, Билли Эшер/Billy Asher, Джулиан Гловер/Julian Glover, Сара Эдмондсон/Sarah Edmondson и др.

Описание: Что может быть страшнее для Чарли Вуда — школьного учителя, чем с треском вылететь с «любимой» работы и попрощаться с бандой малолетних спиногрызов? Только сидеть на шее у своей жены — копа, превратиться в домохозяйку и няню в одном лице. Или просиживать штаны в пыльной конторе до конца жизни…
Отличная перспектива! Но судьба все же слабо улыбнулась патологическому неудачнику. Наверное, она просто хотела над ним посмеяться. Жаль, что он сразу этого не понял…



Качество: BDRip с [Blu-Ray Remux/1080p]
Формат: AVI
Видео кодек: XviD
Аудио кодек: AC3
Видео: 720x304 (2.37:1), 23.976 fps, XviD build 50 ~1974 kbps avg, 0.38 bit/pixel
Аудио: 48 kHz, AC3 Dolby Digital, 3/2 (L,C,R,l,r) + LFE ch, ~448 kbps | Russian | Карповский
E:INTERNETbig.nothing.2006.bdrip.avo.karpovsky.avi
General
Complete name : E:INTERNETbig.nothing.2006.bdrip.avo.karpovsky.avi
Format : AVI
Format/Info : Audio Video Interleave
File size : 1.45 GiB
Duration : 1h 25mn
Overall bit rate : 2 432 Kbps
Movie name : Big.Nothing.2006
Writing application : VirtualDubMod 1.5.10.2 (build 2540/release)
Video #0
ID : 0
Format : MPEG-4 Visual
Format profile : Advanced Simple@L5
Format settings, BVOP : 1
Format settings, QPel : No
Format settings, GMC : No warppoints
Format settings, Matrix : Default (MPEG)
Codec ID : XVID
Codec ID/Hint : XviD
Duration : 1h 25mn
Bit rate : 1 974 Kbps
Width : 720 pixels
Height : 304 pixels
Display aspect ratio : 2.35:1
Frame rate : 23.976 fps
Color space : YUV
Chroma subsampling : 4:2:0
Bit depth : 8 bits
Scan type : Progressive
Compression mode : Lossy
Bits/(Pixel*Frame) : 0.376
Stream size : 1.18 GiB (81%)
Writing library : XviD 1.2.1 (UTC 2008-12-04)
Audio #1
ID : 1
Format : AC-3
Format/Info : Audio Coding 3
Mode extension : CM (complete main)
Format settings, Endianness : Big
Codec ID : 2000
Duration : 1h 25mn
Bit rate mode : Constant
Bit rate : 448 Kbps
Channel(s) : 6 channels
Channel positions : Front: L C R, Side: L R, LFE
Sampling rate : 48.0 KHz
Bit depth : 16 bits
Compression mode : Lossy
Stream size : 274 MiB (18%)
Alignment : Split accross interleaves
Interleave, duration : 42 ms (1.00 video frame)
Interleave, preload duration : 500 ms
piratbit.pw



Скачать Полный облом через торрент http://i48.fastpic.ru/big/2013/0718/49/f0ca57fde97e29f1a50320148fd20b49.jpg Скачать фильм Полный облом через торрент бесплантно в хорошем качестве Описание: Что может быть страшнее для Чарли Вуда — школьного учителя, чем с треском вылететь с «любимой» работы и попрощаться с бандой ... 9.5 10 11
Info! Золотая раздача, скачанное не засчитывается.
Торрент: Зарегистрирован [2013-07-18 13:30] · скачан: 244 раз
Статус: √ проверено
Размер: 1.45 GB
Как cкачать? Как скачать Полный облом через торрент | UTorrent

% Раздел Тема Автор DL S | L
Фильмы [HD 720p, 1080p] (Хороший звук DUB, MVO) [ 9.34 GB ] Полный облом / Big Nothing [2006 BDRip 1080p] DUB 2 x AVO msltel Скачать
1 | 0
Фильмы [HD 720p, 1080p] (Хороший звук DUB, MVO) [ 3.98 GB ] Полный облом / Big Nothing [2006 BDRip 720p] DUB 2 x AVO msltel Скачать
1 | 0
Фильмы с авторской озвучкой [ 1.26 GB ] Полный облом / Big Nothing [2006 BDRip] [AVO] killermax2013 Скачать
1 | 0
Фильмы 2006-2008 [ 1.45 GB ] Полный облом / Big Nothing [2006 BDRip] DUB sokol_ok Скачать
1 | 1
Фильмы 2006-2008 [ 1.42 GB ] Полный облом / Big Nothing [2006 BDRip] feldeger Скачать
1 | 0
Фильмы [HD 720p, 1080p] (Хороший звук DUB, MVO) [ 4.63 GB ] Полный облом / Big Nothing [2006 BDRip] Flint3 Скачать
1 | 0

28-11-2019 20:33  

Отключить всю рекламу на сайте

    Дорогой пользователь! Огромная просьба, поблагодарите релизера, оцените раздачу и оставьте свои комментарий, если Вы скачали Полный облом через торрент бесплатно! Внесите свою лепту в развитие PiratBit!
    Комментировать посты могут только пользователи прошедшие не сложную регистрацию
    Показать сообщения:    

    Полный облом через торрент
    Скачать бесплатно Полный облом
    Полный облом скачать торрент
    Полный облом смотреть онлайн
    Cкачать фильм Полный облом бесплатно
    Полный облом скачать торрент в хорошем качестве
    Полный облом смотреть онлайн бесплатно в хорошем качестве


    Вы не можете начинать темы
    Вы не можете отвечать на сообщения
    Вы не можете редактировать свои сообщения
    Вы не можете удалять свои сообщения
    Вы не можете голосовать в опросах
    Вы не можете прикреплять файлы к сообщениям
    Вы можете скачивать файлы