Ссылка на приватное зеркало нашего сайта всего за 1$. Внимание количество ограничено!!!

2 сезон

iTunes

iTunes

1

iTunes

iTunes

iTunes

WEBRip

iTunes

30
pack

Вам бонус

ВАЖНО

!!Акция!!

Alien_RageХит недели

RePack

Horizon Zero Dawn

ИГРА 18+

pack

RePack

jed

!!Акция!!

Alien_Rage

RePack

fifa19

RePack

Assassins Creed: Odyssey

RePack

NEED FOR SPEED™ PAYBACK

4 сезон

9 сезон

Бесстыжие 9 сезон

Все сериалы

все сериалы на PB.wtf

RePack

FAR CRY 5
  

8 первых свиданий (Дэвид Додсон, Александр Маляревский) [2012 г., комедия, BDRip (720p)] лицензия piratbit.pw

8 первых свиданий через торрент piratbit.pw

Размер: 4.33 GB | Добавлен: 8 лет 5 мес. назад | Торрент скачан:492 раза
Скачать  

11-04-2012 10:56 8 первых свиданий Скачать торрент  

8 первых свиданий Год выпуска: 2012
Страна: Россия
Жанр: комедия
Продолжительность: 01:26:33
Перевод: Не требуется
Субтитры: Отсутствуют
Тип релиза: Лицензия

Режиссер: Дэвид Додсон, Александр Маляревский
Продюссер: Екатерина Гордецкая, Андрей Радько, Борис Шефир
Сценарий: Студия Квартал-95

Бюджет: $7 454 660

Мировой рейтинг IMDB 6.20 (87)


В ролях: Оксана Акиньшина, Владимир Зеленский, Денис Никифоров, Екатерина Варнава, Сабина Ахмедова, Ильдар Аллабирдин, Сергей Барковский, Наталья Иохвидова, Игорь Жижикин, Елена Кондулайнен

Описание: Вера — телезвезда, ее жених Константин — профессиональный теннисист. Они собираются пожениться. Никита врач-ветеринар и красавица-хирург Илона также спешат оформить отношения. Но одно прекрасное утро разрушает все планы. После веселого вечера Вера просыпается в одной постели с Никитой. Решив, что это последствия слишком бурной вечеринки, молодые люди разъезжаются в разные стороны. Но следующим днем все повторяется — Никита и Вера снова вместе, хотя каждый хорошо помнит, как они засыпали дома — каждый у себя... Так происходит всю последующую неделю. Какие-то таинственные силы устраивают эти неожиданные «свидания», кто-то хочет разрушить их браки, а может быть просто доказать, что они созданы друг для друга?

Качество: BDRip (720p)
Формат: MKV
Видео кодек: H.26x
Аудио кодек: AC3
Видео: AVC, 1280x536 (2.35), 24.000 fps, 6 385 Kbps (0.388 bit/pixel)
Аудио: AC-3, 48.0 KHz, 6 ch, 640 Kbps, CBR (Russian)


Скриншоты:



General
Unique ID : 219207414941066868320152739479845708664 (0xA4E9CFFC814D672F8EAEDCF544E1A378)
Complete name : E:\mkv\Vosem.pervuh.svidaniy.2012.MPEG-2.BluRay(1080p)\Vosem.pervuh.svidaniy..mkv
Format : Matroska
Format version : Version 2
File size : 4.33 GiB
Duration : 1h 26mn
Overall bit rate : 7 168 Kbps
Movie name : Vosem.pervuh.svidaniy.2012.MPEG-2.BluRay(1080p).Title4.BlurayRip
Encoded date : UTC 2012-04-11 09:46:54
Writing application : DVDFab
Writing library : libebml v0.7.8 + libmatroska v0.8.1

Video
ID : 1
Format : AVC
Format/Info : Advanced Video Codec
Format profile : High@L5.1
Format settings, CABAC : Yes
Format settings, ReFrames : 2 frames
Codec ID : V_MPEG4/ISO/AVC
Duration : 1h 26mn
Bit rate : 6 385 Kbps
Width : 1 280 pixels
Height : 536 pixels
Display aspect ratio : 2.40:1
Frame rate : 24.000 fps
Color space : YUV
Chroma subsampling : 4:2:0
Bit depth : 8 bits
Scan type : Progressive
Bits/(Pixel*Frame) : 0.388
Stream size : 3.86 GiB (89%)
Writing library : x264 core
Default : Yes
Forced : No
Color primaries : BT.709-5, BT.1361, IEC 61966-2-4, SMPTE RP177
Transfer characteristics : BT.709-5, BT.1361
Matrix coefficients : BT.709-5, BT.1361, IEC 61966-2-4 709, SMPTE RP177

Audio
ID : 2
Format : AC-3
Format/Info : Audio Coding 3
Mode extension : CM (complete main)
Codec ID : A_AC3
Duration : 1h 26mn
Bit rate mode : Constant
Bit rate : 640 Kbps
Channel(s) : 6 channels
Channel positions : Front: L C R, Side: L R, LFE
Sampling rate : 48.0 KHz
Bit depth : 16 bits
Compression mode : Lossy
Stream size : 396 MiB (9%)
Language : Russian
Default : Yes
Forced : No

Menu
00:00:00.000 : en:(01)00:00:00:000
00:01:47.833 : en:(02)00:01:47:833
00:09:51.041 : en:(03)00:09:51:041
00:18:30.083 : en:(04)00:18:30:083
00:28:04.958 : en:(05)00:28:04:958
00:39:34.000 : en:(06)00:39:34:000
00:51:23.916 : en:(07)00:51:23:916
01:03:17.125 : en:(08)01:03:17:125
01:14:08.333 : en:(09)01:14:08:333

piratbit.pw



Скачать 8 первых свиданий через торрент http://i35.fastpic.ru/big/2012/0411/87/dda6f50757573ca553f67ac4cd773b87.png Скачать фильм 8 первых свиданий через торрент бесплантно в хорошем качестве Описание: Вера — телезвезда, ее жених Константин —  теннисист. Они собираются пожениться. Никита врач-ветеринар ... 10 10 5
Info! Золотая раздача, скачанное не засчитывается.
Торрент: Зарегистрирован [2012-04-11 10:56] · скачан: 492 раз
Статус: √ проверено
Размер: 4.33 GB
Как cкачать? Как скачать 8 первых свиданий через торрент | qTorrent

% Раздел Тема Автор DL S | L
Наши новые фильмы 2012 [ 691 MB ] 8 первых свиданий [2012 DVDRip лицензия] 700MB Sудья Скачать
1 | 0

28-11-2019 20:33  

Отключить всю рекламу на сайте

11-04-2012 13:08 8 первых свиданий Скачать торрент  

1080 с меня) piratbit.pw



    Дорогой пользователь! Огромная просьба, поблагодарите релизера, оцените раздачу и оставьте свои комментарий, если Вы скачали 8 первых свиданий через торрент бесплатно! Внесите свою лепту в развитие PiratBit!
    Комментировать посты могут только пользователи прошедшие не сложную регистрацию
    Показать сообщения:    

    8 первых свиданий через торрент
    Скачать бесплатно 8 первых свиданий
    8 первых свиданий скачать торрент
    8 первых свиданий смотреть онлайн
    Cкачать фильм 8 первых свиданий бесплатно
    8 первых свиданий скачать торрент в хорошем качестве
    8 первых свиданий смотреть онлайн бесплатно в хорошем качестве


    Вы не можете начинать темы
    Вы не можете отвечать на сообщения
    Вы не можете редактировать свои сообщения
    Вы не можете удалять свои сообщения
    Вы не можете голосовать в опросах
    Вы не можете прикреплять файлы к сообщениям
    Вы можете скачивать файлы