1 сезон

1 сезон

iTunes

1

КиноПоиск HD

Кинопоиск HD

iTunes

13

1 сезон

RePack

30

Ultimate

ВАЖНО

ИГРА 18+

pack

RePack

MK11
pack

Легкие деньги

RePack

jed

RePack

fifa19

RePack

RDR2

RePack

NEED FOR SPEED™ PAYBACK

4 сезон

9 сезон

Бесстыжие 9 сезон

Все сериалы

все сериалы на PB.wtf

RePack

FAR CRY 5
  
Magnet ссылка

Особо опасен / Wanted (Тимур Бекмамбетов / Timur Bekmambetov) [2008 г., боевик, триллер, криминал, HDRip] [AVO] (А.Гаврилов) piratbit.pw

Особо опасен через торрент piratbit.pw

Размер: 1.46 GB | Добавлен: 7 лет 9 мес. назад | Торрент скачан:154 раза
Скачать  

17-07-2013 11:47 Особо опасен Скачать торрент  

Особо опасен / Wanted
Год выпуска: 2008
Страна: США, Германия
Жанр: боевик, триллер, криминал
Продолжительность: 01:50:00
Перевод: Авторский (одноголосный, закадровый) [А.Гаврилов]
Субтитры: нет

Режиссер: Тимур Бекмамбетов / Timur Bekmambetov

В ролях: Джеймс МакЭвой (Wesley), Морган Фриман (Sloan), Анджелина Джоли (Fox,), Теренс Стэмп (Pekwarsky), Томас Кречманн (Cross), Коммон (The Gunsmith), Кристен Хагер (Cathy), Марк Уоррен (The Repairman), Дэвид ОХара (Mr. X), Константин Хабенский (The Exterminator), Дато Бахтадзе (The Butcher), Крис Прэтт (Barry)

Описание:
Уэсли Гибсон - зануда и нытик, целыми днями торчащий в офисе. Босс его унижает, подружка ему изменяет. Его жизнь катится в никуда! Обнаружив, что отец, бросивший его в раннем детстве, зверски убит, Уэс оказывается втянут в тайное общество киллеров под названием «Братство». За его обучение берется опытная наставница Фокс, и этот когда-то прикованный к офисному креслу хлюпик развивает молниеносную реакцию и сверхчеловеческую скорость. Однако уже на первом задании Уэсли понимает: есть вещи посложнее, чем вершить судьбы других людей. Это - набраться храбрости и стать хозяином собственной жизни.



Качество: HDRip
Формат: AVI
Видео кодек: XviD
Аудио кодек: AC3
Видео: 720x304 (2.37:1), 23.976 fps, XviD build 50 ~1449 kbps avg, 0.28 bit/pixel
Аудио: 48 kHz, AC3 Dolby Digital, 3/2 (L,C,R,l,r) + LFE ch, ~448 kbps
E:INTERNETWanted-gavrilov.avi
General
Complete name : E:INTERNETWanted-gavrilov.avi
Format : AVI
Format/Info : Audio Video Interleave
File size : 1.46 GiB
Duration : 1h 50mn
Overall bit rate : 1 905 Kbps
Movie name : Wanted-gavrilov / Wanted
Writing application : VirtualDubModRus 1.5.10.2 (build 2542/release)
Video #0
ID : 0
Format : MPEG-4 Visual
Format profile : Advanced Simple@L5
Format settings, BVOP : 1
Format settings, QPel : No
Format settings, GMC : No warppoints
Format settings, Matrix : Default (MPEG)
Codec ID : XVID
Codec ID/Hint : XviD
Duration : 1h 50mn
Bit rate : 1 448 Kbps
Width : 720 pixels
Height : 304 pixels
Display aspect ratio : 2.35:1
Frame rate : 23.976 fps
Color space : YUV
Chroma subsampling : 4:2:0
Bit depth : 8 bits
Scan type : Progressive
Compression mode : Lossy
Bits/(Pixel*Frame) : 0.276
Stream size : 1.11 GiB (76%)
Writing library : XviD 1.2.1 (UTC 2008-12-04)
Audio #1
ID : 1
Format : AC-3
Format/Info : Audio Coding 3
Mode extension : CM (complete main)
Format settings, Endianness : Big
Codec ID : 2000
Duration : 1h 49mn
Bit rate mode : Constant
Bit rate : 448 Kbps
Channel(s) : 6 channels
Channel positions : Front: L C R, Side: L R, LFE
Sampling rate : 48.0 KHz
Bit depth : 16 bits
Compression mode : Lossy
Delay relative to video : 1s 0ms
Stream size : 352 MiB (23%)
Alignment : Split accross interleaves
Interleave, duration : 42 ms (1.00 video frame)
Interleave, preload duration : 500 ms
piratbit.pw



Скачать Особо опасен через торрент http://i47.fastpic.ru/big/2013/0717/03/329c24ac4b40836994441cfd04a95503.jpg Скачать фильм Особо опасен через торрент бесплантно в хорошем качестве Описание: Уэсли Гибсон - зануда и нытик, целыми днями торчащий в офисе. Босс его унижает, подружка ему изменяет. Его жизнь катится в ... 9 10 10
Info! Золотая раздача, скачанное не засчитывается.
Торрент: Зарегистрирован [2013-07-17 11:47] · скачан: 154 раз
Статус: √ проверено
Размер: 1.46 GB
Как cкачать? Как скачать Особо опасен через торрент | UTorrent

% Раздел Тема Автор DL S | L
Фильмы 2006-2008 [ 1.45 GB ] Особо опасен / Wanted [2008 WEB-DLRip] [Open Matte] killermax2013 Скачать
2 | 0
Фильмы (Blu-ray, BD-Remux, HDDVD) [ 25.09 GB ] Особо опасен / Wanted [2008 BDRemux 1080p] + [AVO] + [VO] killermax2013 Скачать
1 | 0
Фильмы [HD 720p, 1080p] (Хороший звук DUB, MVO) [ 4.81 GB ] Особо опасен / Wanted [2008 BDRip 720p by msltel] DUB 2 x AVO msltel Скачать
1 | 0
Фильмы [HD 720p, 1080p] (Хороший звук DUB, MVO) [ 13.59 GB ] Особо опасен / Wanted [2008 BDRip 1080p by msltel] DUB 2 x AVO msltel Скачать
2 | 0
Фильмы (WEB-DL 720p, 1080p) [ 12.96 GB ] Особо опасен / Wanted [2008 WEB-DL 1080p] [Open Matte] DUB + AVO [Гаврилов] [AMZN Version] sheker187 Скачать
1 | 0
Фильмы 2006-2008 [ 3.02 GB ] Особо опасен / Wanted [2008 BDRip-AVC [Hi10P] от DHT-Movies DUB + Оригинал] ~Relizer~ Скачать
1 | 0
Фильмы (HD 720p, 1080p) (48-60 fps) [ 5.94 GB ] Особо опасен / Wanted [2008 BDRip 720p 60fps от еnvy / NNNB] DUB еnvy Скачать
2 | 0


Последний раз редактировалось: killermax2013 (2013-07-17 12:40), всего редактировалось 1 раз

28-11-2019 20:33  

Отключить всю рекламу на сайте

17-07-2013 12:30 Особо опасен Скачать торрент  

Убирай из MI ссылки на сторонний ресурс.piratbit.pw



17-07-2013 12:41 Особо опасен Скачать торрент  

лисяра писал(а):

Убирай из MI ссылки на сторонний ресурс.

убрал piratbit.pw



17-07-2013 14:29 Особо опасен Скачать торрент  

перевод не фонтанpiratbit.pw



17-07-2013 14:31 Особо опасен Скачать торрент  

smile69 писал(а):

перевод не фонтан

это для ценителей авторского перевода можете скачать другую раздачу в бубляжеpiratbit.pw



19-07-2013 18:52 Особо опасен Скачать торрент  

Особо опасен 2 - статус производства: проект объявлен 29 июня 2013
piratbit.pw



    Дорогой пользователь! Огромная просьба, поблагодарите релизера, оцените раздачу и оставьте свои комментарий, если Вы скачали Особо опасен через торрент бесплатно! Внесите свою лепту в развитие PiratBit!
    Комментировать посты могут только пользователи прошедшие не сложную регистрацию
    Показать сообщения:    

    Особо опасен через торрент
    Скачать бесплатно Особо опасен
    Особо опасен скачать торрент
    Особо опасен смотреть онлайн
    Cкачать фильм Особо опасен бесплатно
    Особо опасен скачать торрент в хорошем качестве
    Особо опасен смотреть онлайн бесплатно в хорошем качестве


    Вы не можете начинать темы
    Вы не можете отвечать на сообщения
    Вы не можете редактировать свои сообщения
    Вы не можете удалять свои сообщения
    Вы не можете голосовать в опросах
    Вы не можете прикреплять файлы к сообщениям
    Вы можете скачивать файлы