1 сезон

1 сезон

iTunes

1

КиноПоиск HD

Кинопоиск HD

iTunes

13

1 сезон

RePack

30

Новинка

ВАЖНО

ИГРА 18+

pack

RePack

MK11
pack

Легкие деньги

RePack

jed

RePack

fifa19

RePack

RDR2

RePack

NEED FOR SPEED™ PAYBACK

4 сезон

9 сезон

Бесстыжие 9 сезон

Все сериалы

все сериалы на PB.wtf

RePack

FAR CRY 5
  
Magnet ссылка

Прикуп / The Take (Дэвид Друри / David Drury) [2009, триллер, драма, криминал, HDRip] [AVO] (Ю.Сербин) piratbit.pw

Прикуп через торрент piratbit.pw

Размер: 1.93 GB | Добавлен: 7 лет 9 мес. назад | Торрент скачан:744 раза
Скачать  

17-07-2013 11:13 Прикуп Скачать торрент  

Прикуп / The Take
Год выхода: 2009
Страна: Великобритания
Жанр: триллер, драма, криминал
Продолжительность: 02:53:03
Перевод: Авторский (одноголосый закадровый) Ю.Сербин
Cубтитры: русские, английские

Режиссер: Дэвид Друри / David Drury

В ролях: Шон Эванс, Том Харди, Шарлотта Райли, Кирстон Вэрэйнг, Марго Лейкестер, Брайан Кокс, Джейн Вуд, Стив Николсон, Джон Эштон, Меган Джосса

Описание:
Экранизация одного из бестселлеров известной британской писательницы Мартины Коул. «Прикуп» - это захватывающая драма о любви, власти, ревности и предательстве.
Фредди Джексон (Том Харди) только что вышел из тюрьмы. Он отсидел срок, наладил нужные связи и теперь готов вместе со своим преданным кузеном Джимми (Шон Эванс) бросить вызов всему миру, не останавливаясь ни перед кем и ни перед чем.


Семпл

Качество: HDRip
Формат: AVI
Видео кодек: XviD
Аудио кодек: AC3
Видео: 720x400 (1.80:1), 25 fps, XviD build 50 ~820 kbps avg, 0.11 bit/pixel
Аудио 1: 48 kHz, AC3 Dolby Digital, 3/2 (L,C,R,l,r) + LFE ch, ~384 kbps (rus)
Аудио 2: 48 kHz, AC3 Dolby Digital, 3/2 (L,C,R,l,r) + LFE ch, ~384 kbps (eng) (отдельно)
E:INTERNETThe.Take.2009.HDRip.by_MITbKAThe.Take.2009.HDRip.by_MITbKA.avi
General
Complete name : E:INTERNETThe.Take.2009.HDRip.by_MITbKAThe.Take.2009.HDRip.by_MITbKA.avi
Format : AVI
Format/Info : Audio Video Interleave
File size : 1.47 GiB
Duration : 2h 53mn
Overall bit rate : 1 214 Kbps
Writing application : VirtualDubMod 1.5.10.3 |(build 2550/release)
Writing library : VirtualDubMod build 2550/release
Video #0
ID : 0
Format : MPEG-4 Visual
Format profile : Advanced Simple@L5
Format settings, BVOP : 1
Format settings, QPel : No
Format settings, GMC : No warppoints
Format settings, Matrix : Custom
Codec ID : XVID
Codec ID/Hint : XviD
Duration : 2h 53mn
Bit rate : 820 Kbps
Width : 720 pixels
Height : 400 pixels
Display aspect ratio : 16:9
Frame rate : 25.000 fps
Color space : YUV
Chroma subsampling : 4:2:0
Bit depth : 8 bits
Scan type : Progressive
Compression mode : Lossy
Bits/(Pixel*Frame) : 0.114
Stream size : 1 016 MiB (68%)
Writing library : XviD 1.2.1 (UTC 2008-12-04)
Audio #1
ID : 1
Format : AC-3
Format/Info : Audio Coding 3
Mode extension : CM (complete main)
Format settings, Endianness : Big
Codec ID : 2000
Duration : 2h 53mn
Bit rate mode : Constant
Bit rate : 384 Kbps
Channel(s) : 6 channels
Channel positions : Front: L C R, Side: L R, LFE
Sampling rate : 48.0 KHz
Bit depth : 16 bits
Compression mode : Lossy
Stream size : 475 MiB (32%)
Alignment : Split accross interleaves
Interleave, duration : 40 ms (1.00 video frame)
Interleave, preload duration : 500 ms
piratbit.pw



Скачать Прикуп через торрент http://2.firepic.org/2/images/2013-03/02/x1okln2bp28x.jpg Скачать фильм Прикуп через торрент бесплантно в хорошем качестве Описание: Экранизация одного из бестселлеров известной британской писательницы Мартины Коул. «Прикуп» - это захватывающая драма о любви, ... 10 10 18
Info! Золотая раздача, скачанное не засчитывается.
Торрент: Зарегистрирован [2013-07-17 11:13] · скачан: 744 раз
Статус: √ проверено
Размер: 1.93 GB
Как cкачать? Как скачать Прикуп через торрент | UTorrent

% Раздел Тема Автор DL S | L
Зарубежные сериалы [ 5.75 GB ] Прикуп / The Take / Сезон: 1 / Серии: 1-4 из 4 [2009 BDRip 1080p] [MVO] killermax2013 Скачать
6 | 0
Фильмы 2009 [ 3.42 GB ] Прикуп / The Take [2009 BDRip] [MVO] + [AVO] killermax2013 Скачать
2 | 0
Зарубежные сериалы [ 15.45 GB ] Прикуп / The Take [2009 BDRip 1080p Авторский Ю.Сербин] _denis_100 Скачать
1 | 0
Зарубежные сериалы [ 1.65 GB ] Прикуп / The Take Сезон: 1 / Серии 1-4 из 4 [2009 ьная DVDRip] VO закадровый wekotila Скачать
1 | 0

28-11-2019 20:33  

Отключить всю рекламу на сайте

17-07-2013 11:54 Прикуп Скачать торрент  

На кинопоиске указано, что это минисериал, а тут он целиком?piratbit.pw



17-07-2013 12:08 Прикуп Скачать торрент  

Mihamiha писал(а):

На кинопоиске указано, что это минисериал, а тут он целиком?

тут целиком и полностью piratbit.pw



17-07-2013 12:12 Прикуп Скачать торрент  

О, респект!piratbit.pw



17-07-2013 14:21 Прикуп Скачать торрент  

Вот это да, фильм СУПЕР, искал его, а тут пожалуйста.
СПСpiratbit.pw



17-07-2013 14:26 Прикуп Скачать торрент  

dabrik писал(а):

Вот это да, фильм СУПЕР, искал его, а тут пожалуйста.
СПС

пожалуйста фильм и правда офигенный и смотреть в озвучке Юрия Сербина одно удовольствие Странно что второй сезон еще не сняли,да и америкосы на свой лад не пересняли тоже еще о переработке нашими "кино умельцами" вообще страшно подумать piratbit.pw



03-09-2016 16:30 Прикуп Скачать торрент  

нет раздачиpiratbit.pw



    Дорогой пользователь! Огромная просьба, поблагодарите релизера, оцените раздачу и оставьте свои комментарий, если Вы скачали Прикуп через торрент бесплатно! Внесите свою лепту в развитие PiratBit!
    Комментировать посты могут только пользователи прошедшие не сложную регистрацию
    Показать сообщения:    

    Прикуп через торрент
    Скачать бесплатно Прикуп
    Прикуп скачать торрент
    Прикуп смотреть онлайн
    Cкачать фильм Прикуп бесплатно
    Прикуп скачать торрент в хорошем качестве
    Прикуп смотреть онлайн бесплатно в хорошем качестве


    Вы не можете начинать темы
    Вы не можете отвечать на сообщения
    Вы не можете редактировать свои сообщения
    Вы не можете удалять свои сообщения
    Вы не можете голосовать в опросах
    Вы не можете прикреплять файлы к сообщениям
    Вы можете скачивать файлы