1 сезон

1 сезон

iTunes

1

iTunes

Кинопоиск HD

iTunes

13

1 сезон

RePack

30

Deluxe

ВАЖНО

ИГРА 18+

pack

RePack

MK11
pack

Легкие деньги

RePack

jed

RePack

fifa19

RePack

RDR2

RePack

NEED FOR SPEED™ PAYBACK

4 сезон

9 сезон

Бесстыжие 9 сезон

Все сериалы

все сериалы на PB.wtf

RePack

FAR CRY 5
  
Magnet ссылка

Сомнение / Doubt (Джон Патрик Шэнли) [2008 г., драма, детектив, BDRip, Дубляж + Оригинал] piratbit.pw

Сомнение через торрент piratbit.pw

Размер: 2.05 GB | Добавлен: 7 лет 9 мес. назад | Торрент скачан:42 раза
Скачать  

15-07-2013 14:00 Сомнение Скачать торрент  

Сомнение / Doubt Год выпуска: 2008
Страна: США
Производство: Goodspeed Productions, Scott Rudin Productions
Жанр: драма, детектив
Продолжительность: 01:43:54
Перевод: Дубляж + Оригинал

Режиссер: Джон Патрик Шэнли
Продюссер: Марк Ройбал, Скотт Рудин, Селия Д. Костас
Сценарий: Джон Патрик Шэнли
Бюджет: $20 000 000
Премьера в мире: 30 октября 2008


В ролях: Мэрил Стрип, Филип Сеймур Хоффман, Эми Адамс, Виола Дэвис, Элис Драммонд, Одри Дж. Нинан, Сьюзан Бломмарт, Кэрри Престон, Джон Костелло, Ллойд Клэй Браун, Галина Чигинская, Артем Веселов, Ирина Горячева, Татьяна Рассказова, Ирина Балай,

Описание: Сестра Элозиус, суровый школьный директор и ярая защитница монашеских традиций, стоит перед выбором всей ее жизни: или она покажет свой страх и открыто обвинит священника в том, что он нанес оскорбление афроамериканскому ученику, или же она утаит свои подозрения и сомнения. Особенно, когда за возможным оскорблением может скрываться кое-что серьезнее. Это глубокая, личностная борьба между сестрой Элозиус и отцом Флинном в конце концов перерастает в вопрос веры и справедливости в тени уединенной, «закрытой» церковной организации.

Доп. информация: 5 Номинаций на Оскар и Золотой глобус, 2009г. в категориях Лучшая женская роль (Мэрил Стрип), Лучшая мужская роль второго плана (Филип Сеймур Хоффман), Лучшая женская роль второго плана (Эми Адамс), Лучшая женская роль второго плана (Виола Дэвис), Лучший сценарий.



Сэмпл / Трейлер

  • Качество: BDRip
  • Формат: AVI
  • Видео кодек: XviD
  • Аудио кодек: AC3
  • Видео: MPEG4, XviD, 720x384 (1.860), 23.976 fps, 1 973 Kbps (0.298 bit/pixel)
  • Аудио#1: AC-3, 48.0 KHz, 6 ch, 384 Kbps, CBR (Russian)
  • Аудио#2: AC-3, 48.0 KHz, 6 ch, 448 Kbps, CBR (English)
    Формат : AVI
    Формат/Информация : Audio Video Interleave
    Профиль формата : OpenDML
    Размер файла : 2,05 Гбайт
    Продолжительность : 1 ч. 43 м.
    Общий поток : 2818 Кбит/сек
    Название фильма : Doubt
    Жанр : Drama, Detective
    Программа кодирования : VirtualDubModRus 1.5.10.2 (build 2542/release)
    Библиотека кодирования : VirtualDubMod build 2542/release
    Формат оригинала/Имя : Movie
    Примечание : Rip ot kep

    Видео
    Идентификатор : 0
    Формат : MPEG-4 Visual
    Профиль формата : Advanced Simple@L5
    Параметр BVOP формата : 1
    Параметр QPel формата : Нет
    Параметр GMC формата : Без точки перехода
    Параметр матрицы формата : Default (MPEG)
    Идентификатор кодека : XVID
    Идентификатор кодека/Подсказка : XviD
    Продолжительность : 1 ч. 43 м.
    Битрейт : 1973 Кбит/сек
    Ширина : 720 пикселей
    Высота : 384 пикселя
    Соотношение сторон : 1,85:1
    Частота кадров : 23,976 кадра/сек
    Цветовое пространство : YUV
    Субдискретизация насыщенности : 4:2:0
    Битовая глубина : 8 бит
    Тип развёртки : Прогрессивная
    Метод сжатия : С потерями
    Бит/(Пиксели*Кадры) : 0.298
    Размер потока : 1,43 Гбайт (70%)
    Библиотека кодирования : XviD 64

    Аудио #1
    Идентификатор : 1
    Формат : AC-3
    Формат/Информация : Audio Coding 3
    Расширение режима : CM (complete main)
    Параметр Endianness формата : Big
    Идентификатор кодека : 2000
    Продолжительность : 1 ч. 43 м.
    Вид битрейта : Постоянный
    Битрейт : 384 Кбит/сек
    Каналы : 6 каналов
    Расположение каналов : Front: L C R, Side: L R, LFE
    Частота : 48,0 КГц
    Битовая глубина : 16 бит
    Метод сжатия : С потерями
    Размер потока : 285 Мбайт (14%)
    Выравнивание : Разделение по промежуткам
    Продолжительность промежутка : 80 мс. (1,92 видеокадра)
    Время предзагрузки промежутка : 560 мс.
    Заголовок : Russian

    Аудио #2
    Идентификатор : 2
    Формат : AC-3
    Формат/Информация : Audio Coding 3
    Расширение режима : CM (complete main)
    Параметр Endianness формата : Big
    Идентификатор кодека : 2000
    Продолжительность : 1 ч. 43 м.
    Вид битрейта : Постоянный
    Битрейт : 448 Кбит/сек
    Каналы : 6 каналов
    Расположение каналов : Front: L C R, Side: L R, LFE
    Частота : 48,0 КГц
    Битовая глубина : 16 бит
    Метод сжатия : С потерями
    Размер потока : 333 Мбайт (16%)
    Выравнивание : Разделение по промежуткам
    Продолжительность промежутка : 69 мс. (1,64 видеокадра)
    Время предзагрузки промежутка : 548 мс.
    Заголовок : English
    скриншот   скриншот   скриншот   скриншот   скриншот  piratbit.pw



  • Скачать Сомнение через торрент http://i4.imageban.ru/out/2013/07/15/e44270f3690eea2e0d207ea0844b90bc.png Скачать фильм Сомнение через торрент бесплантно в хорошем качестве Описание: Сестра Элозиус, суровый школьный директор и ярая защитница монашеских традиций, стоит перед выбором всей ее жизни: или она ... 10 10 5
    Info! Золотая раздача, скачанное не засчитывается.
    Торрент: Зарегистрирован [2013-07-15 14:00] · скачан: 42 раз
    Статус: √ проверено
    Размер: 2.05 GB
    Как cкачать? Как скачать Сомнение через торрент | UTorrent

    % Раздел Тема Автор DL S | L
    T Научно-популярные фильмы [ 1.45 GB ] Торговцы сомнениями / Merchants of Doubt [2014 документальный HDRip] DVO [GreenРай Studio] bober100 Скачать
    1 | 0
    Фильмы 2006-2008 [ 1.47 GB ] Разумное сомнения / Beyond a Reasonable Doubt лицензия [2008 DVDRip] MrKuzj Скачать
    1 | 0
    Фильмы 2014 [DVDrip, WEB-DLRip, HDrip] [ 1.92 GB ] Разумное сомнение / Reasonable Doubt [2014 BDRip] MVO Ворон Скачать
    1 | 0
    Фильмы (Blu-ray, BD-Remux, HDDVD) [ 25.08 GB ] Разумное сомнение / Reasonable Doubt [2014 BDRemux 1080p |AVO+VO Ворон Скачать
    1 | 0
    Фильмы 2009 [ 1.37 GB ] Разумное сомнение / Beyond a Reasonable Doubt [2009 DVDRip] DoTa Скачать
    1 | 0
    Фильмы 2009 [ 701 MB ] По ту сторону разумного сомнения / Beyond a Reasonable Doubt [2009 DVDRip] DEVI Скачать
    1 | 0

    28-11-2019 20:33  

    Отключить всю рекламу на сайте

    15-07-2013 18:11 Сомнение Скачать торрент  

    Классный фильм...piratbit.pw



      Дорогой пользователь! Огромная просьба, поблагодарите релизера, оцените раздачу и оставьте свои комментарий, если Вы скачали Сомнение через торрент бесплатно! Внесите свою лепту в развитие PiratBit!
      Комментировать посты могут только пользователи прошедшие не сложную регистрацию
      Показать сообщения:    

      Сомнение через торрент
      Скачать бесплатно Сомнение
      Сомнение скачать торрент
      Сомнение смотреть онлайн
      Cкачать фильм Сомнение бесплатно
      Сомнение скачать торрент в хорошем качестве
      Сомнение смотреть онлайн бесплатно в хорошем качестве


      Вы не можете начинать темы
      Вы не можете отвечать на сообщения
      Вы не можете редактировать свои сообщения
      Вы не можете удалять свои сообщения
      Вы не можете голосовать в опросах
      Вы не можете прикреплять файлы к сообщениям
      Вы можете скачивать файлы