1 сезон

1 сезон

iTunes

1

КиноПоиск HD

Кинопоиск HD

iTunes

13

1 сезон

RePack

30

Ultimate

ВАЖНО

ИГРА 18+

pack

RePack

MK11
pack

Легкие деньги

RePack

jed

RePack

fifa19

RePack

RDR2

RePack

NEED FOR SPEED™ PAYBACK

4 сезон

9 сезон

Бесстыжие 9 сезон

Все сериалы

все сериалы на PB.wtf

RePack

FAR CRY 5
  
Magnet ссылка

Смерть со спецэффектами / Чудик / Freaky Deaky (Чарльз Мэттоу) [2012 г., триллер, криминал, комедия, WEB-DLRip] AVO [Артём Белоконский] piratbit.pw

Смерть со спецэффектами через торрент piratbit.pw

Размер: 1.46 GB | Добавлен: 7 лет 9 мес. назад | Торрент скачан:389 раз
Скачать  

02-07-2013 14:18 Смерть со спецэффектами Скачать торрент  

Смерть со спецэффектами / Чудик / Freaky DeakyГод выпуска: 2012
Страна: США / Matthau Company, The, Final Cut Productions
Жанр: триллер, криминал, комедия,
Продолжительность: 01:30:37
Перевод: Авторское (одноголосное) [Артём Белоконский]
Режиссер: Чарльз Мэттоу



В ролях: Кристиан Слэйтер, Криспин Гловер, Майкл Джей Уайт, Билли Бурк, Энди Дик, Билл Дьюк, Роджер Барт, Марк Сауль, Глория Хендри, Сабина Гадеки,

Описание: Бывшему полицейскому подрывнику Бобу Сквэду вновь приходится вспомнить, что сапер ошибается лишь раз. Разбирая дело женщины, обвинившей в изнасиловании некоего богача, он сам попадает в опасный переплет. У подозреваемого еще со времен бурной юности, проведенной в колледже, имеются два закадычных друга. Эти серьезные парни задались целью убить Боба.

Качество: WEB-DLRip
Формат: AVI
Видео кодек: XviD
Аудио кодек: AC3
Видео: 1852 kb/s, 720x384, 24 fps
Аудио#1: AC3, 384 kb/s (6 ch), 48 kHz

Общее
Полное имя : E:Download-UT++Smertj.so.speceffektami.2012.L1.WEBDLRip.1.46Gb.avi
Формат : AVI
Формат/Информация : Audio Video Interleave
Размер файла : 1,46 Гбайт
Продолжительность : 1 ч. 33 м.
Общий поток : 2245 Кбит/сек
Программа кодирования : VirtualDubMod 1.5.10.2 (build 2540/release)
Библиотека кодирования : VirtualDubMod build 2540/release

Видео
Идентификатор : 0
Формат : MPEG-4 Visual
Профиль формата : Advanced Simple@L5
Параметр BVOP формата : 2
Параметр QPel формата : Нет
Параметр GMC формата : Без точки перехода
Параметр матрицы формата : Default (MPEG)
Идентификатор кодека : XVID
Идентификатор кодека/Подсказка : XviD
Продолжительность : 1 ч. 33 м.
Битрейт : 1852 Кбит/сек
Ширина : 720 пикселей
Высота : 384 пикселя
Соотношение сторон : 1,85:1
Частота кадров : 23,976 кадра/сек
Цветовое пространство : YUV
Субдискретизация насыщенности : 4:2:0
Битовая глубина : 8 бит
Тип развёртки : Прогрессивная
Метод сжатия : С потерями
Бит/(Пиксели*Кадры) : 0.279
Размер потока : 1,20 Гбайт (82%)
Библиотека кодирования : XviD 1.2.1 (UTC 2008-12-04)

Аудио
Идентификатор : 1
Формат : AC-3
Формат/Информация : Audio Coding 3
Расширение режима : CM (complete main)
Параметр Endianness формата : Big
Идентификатор кодека : 2000
Продолжительность : 1 ч. 33 м.
Вид битрейта : Постоянный
Битрейт : 384 Кбит/сек
Каналы : 6 каналов
Расположение каналов : Front: L C R, Side: L R, LFE
Частота : 48,0 КГц
Битовая глубина : 16 бит
Метод сжатия : С потерями
Размер потока : 256 Мбайт (17%)
Выравнивание : Разделение по промежуткам
Продолжительность промежутка : 42 мс. (1,00 видеокадр)
Время предзагрузки промежутка : 500 мс.

piratbit.pw



Скачать Смерть со спецэффектами через торрент http://uploadpic.ru/img/2013-07/02/ld6bqgmlob4g5dgfnfaead32v.jpg Скачать фильм Смерть со спецэффектами через торрент бесплантно в хорошем качестве Описание: Бывшему полицейскому подрывнику Бобу Сквэду вновь приходится вспомнить, что сапер ошибается лишь раз. Разбирая дело женщины, ... 9.9 10 15
Info! Золотая раздача, скачанное не засчитывается.
Торрент: Зарегистрирован [2013-07-02 14:18] · скачан: 389 раз
Статус: √ проверено
Размер: 1.46 GB
Как cкачать? Как скачать Смерть со спецэффектами через торрент | UTorrent

28-11-2019 20:33  

Отключить всю рекламу на сайте

    Дорогой пользователь! Огромная просьба, поблагодарите релизера, оцените раздачу и оставьте свои комментарий, если Вы скачали Смерть со спецэффектами через торрент бесплатно! Внесите свою лепту в развитие PiratBit!
    Комментировать посты могут только пользователи прошедшие не сложную регистрацию
    Показать сообщения:    

    Смерть со спецэффектами через торрент
    Скачать бесплатно Смерть со спецэффектами
    Смерть со спецэффектами скачать торрент
    Смерть со спецэффектами смотреть онлайн
    Cкачать фильм Смерть со спецэффектами бесплатно
    Смерть со спецэффектами скачать торрент в хорошем качестве
    Смерть со спецэффектами смотреть онлайн бесплатно в хорошем качестве


    Вы не можете начинать темы
    Вы не можете отвечать на сообщения
    Вы не можете редактировать свои сообщения
    Вы не можете удалять свои сообщения
    Вы не можете голосовать в опросах
    Вы не можете прикреплять файлы к сообщениям
    Вы можете скачивать файлы