1 сезон

3 сезон

iTunes

1

iTunes

DUB Netflix

iTunes

13

1 сезон

RePack

30

Deluxe

pack

Легкие деньги

ВАЖНО

ИГРА 18+

pack

RePack

MK11

RePack

jed

RePack

fifa19

RePack

RDR2

RePack

NEED FOR SPEED™ PAYBACK

4 сезон

9 сезон

Бесстыжие 9 сезон

Все сериалы

все сериалы на PB.wtf

RePack

FAR CRY 5

Anonymous, доброй ночи, мы не успеваем до 1 числа собрать деньги на оплату серверов, помогите нам пожалуйста в это трудное время. В качестве благодарности мы отключим Вам всю рекламу на сайте (укажите свой ник в строку Ваше имя)!

×
  
Magnet ссылка

Ни за что не умру в одиночку / I’ll Never Die Alone (Адриан Гарсии Боглиано / Adrian Garcia Bogliano) [2008 г., ужасы, триллер, DVDRip-AVC, VO] piratbit.pw

Ни за что не умру в одиночку через торрент piratbit.pw

Размер: 1.45 GB | Добавлен: 7 лет 11 мес. назад | Торрент скачан:108 раз
Скачать  

21-06-2013 15:18 Ни за что не умру в одиночку Скачать торрент  

Ни за что не умру в одиночку / I’ll Never Die Alone
Год выпуска: 2008
Страна: Испания , Аргентина
Жанр: ужасы, триллер,
Продолжительность: 01:23:00
Перевод: Любительский одноголосый (den904)
Субтитры: русские UTF-8 (femme & capam )

Режиссер: Адриан Гарсии Боглиано / Adrian Garcia Bogliano
Продюссер: Себастьян Фретес, Мартин Фриас, Адриан Соса
Сценарий: Адриан Гарсия Боглиано, Рамиро Гарсия Больяно, Мартин Фриас

Бюджет: $6 000
Премьера в мире: 7 декабря 2008

MPAA:

Этот рейтинг подразумевает, что все родители прекрасно отдают себе отчет, что продукт, получивший такое ограничение, не предназначен для просмотра лицами, не достигшими 17-летнего возраста. Фильм может содержать довольно откровенные сексуальные моменты, соответствующий слэнг и эпизоды с чрезвычайным насилием. Однако рейтинг не подразумевает, что фильм является непристойным или порнографическим.
Многие кинотеатры предпочитает не связываться с фильмами, получившими рейтинг NC-17. Кроме того, такие фильмы запрещено рекламировать в средствах массовой информации (телевидение, радио, печать и т.д.).


http://www.imdb.com/title/tt1278102/
http://www.kinopoisk.ru/film/459882/

В ролях: Андрес Арамбуру, Жимена Блеса, Леонардо Канга, Леонардо Сучетти, Магдалена Де Санто, Андреа Дуарте, Рольф Гарсия, Марисоль Тур, Виктория Витембург

Описание: Четыре девушки в машине,делают ошибку, взяв умирающую девушку на обочине дороги.… Их скоро найдут три охотника-скота лишенных всякой морали. Изнасилование было только начало...
Фильм не рекомендован для просмотра людям с неокрепшей психикой и несовершеннолетним!

Качество: DVDRip-AVC
Формат: MKV
Видео кодек: H.264
Аудио кодек: AC3
Видео: 720x572(16:9), 25 fps ~ 2100 Kbps
Аудио#1: 48 KHz 2 ch ~ 192 Kb/s (rus)
Аудио#2: 48 KHz 2 ch ~ 192 Kb/s (spa)




Общее
Уникальный идентификатор : 241549818908443913540179445308462301630 (0xB5B8CD8CCD278B07B5A04E71B61181BE)
Полное имя : Q:TorFI’ll_Never_Die_Alone.2008.mkv
Формат : Matroska
Версия формата : Version 2
Размер файла : 1,45 Гбайт
Продолжительность : 1 ч. 23 м.
Общий поток : 2491 Кбит/сек
Название фильма : I’ll Never Die Alone.2008
Дата кодирования : UTC 2012-05-08 07:56:29
Программа кодирования : mkvmerge v4.9.1 ('Ich will') сборка от Aug 10 2011 09:31:20
Библиотека кодирования : libebml v1.2.1 + libmatroska v1.2.0

Видео
Идентификатор : 1
Формат : AVC
Формат/Информация : Advanced Video Codec
Профиль формата : High@L4.1
Параметр CABAC формата : Да
Параметр ReFrames формата : 11 кадров
Идентификатор кодека : V_MPEG4/ISO/AVC
Продолжительность : 1 ч. 23 м.
Битрейт : 2106 Кбит/сек
Ширина : 720 пикселей
Высота : 572 пикселя
Соотношение сторон : 16:9
Частота кадров : 25,000 кадров/сек
Цветовое пространство : YUV
Субдискретизация насыщенности : 4:2:0
Битовая глубина : 8 бит
Тип развёртки : Прогрессивная
Бит/(Пиксели*Кадры) : 0.205
Размер потока : 1,20 Гбайт (83%)
Заголовок : I’ll Never Die Alone.2008.DVDRip-AVC_[rutracker.org]_by_Deerhoof
Библиотека кодирования : x264 core 120 r2164 da19765
Настройки программы : cabac=1 / ref=11 / deblock=1:-2:-1 / analyse=0x3:0x133 / me=umh / subme=11 / psy=1 / psy_rd=0.95:0.05 / mixed_ref=1 / me_range=48 / chroma_me=1 / trellis=2 / 8x8dct=1 / cqm=0 / deadzone=21,11 / fast_pskip=0 / chroma_qp_offset=-3 / threads=6 / sliced_threads=0 / nr=0 / decimate=1 / interlaced=0 / bluray_compat=0 / constrained_intra=0 / bframes=12 / b_pyramid=2 / b_adapt=2 / b_bias=0 / direct=3 / weightb=1 / open_gop=0 / weightp=2 / keyint=250 / keyint_min=25 / scenecut=40 / intra_refresh=0 / rc_lookahead=80 / rc=2pass / mbtree=1 / bitrate=2106 / ratetol=1.0 / qcomp=0.60 / qpmin=0 / qpmax=69 / qpstep=4 / cplxblur=20.0 / qblur=0.5 / ip_ratio=1.40 / aq=2:0.90
Default : Да
Forced : Нет

Аудио #1
Идентификатор : 2
Формат : AC-3
Формат/Информация : Audio Coding 3
Расширение режима : CM (complete main)
Идентификатор кодека : A_AC3
Продолжительность : 1 ч. 23 м.
Вид битрейта : Постоянный
Битрейт : 192 Кбит/сек
Каналы : 2 канала
Расположение каналов : Front: L R
Частота : 48,0 КГц
Битовая глубина : 16 бит
Метод сжатия : С потерями
Задержка видео : 16 мс.
Размер потока : 115 Мбайт (8%)
Заголовок : Одноголосый закадровый (den904)
Язык : Russian
Default : Да
Forced : Нет

Аудио #2
Идентификатор : 3
Формат : AC-3
Формат/Информация : Audio Coding 3
Расширение режима : CM (complete main)
Идентификатор кодека : A_AC3
Продолжительность : 1 ч. 23 м.
Вид битрейта : Постоянный
Битрейт : 192 Кбит/сек
Каналы : 2 канала
Расположение каналов : Front: L R
Частота : 48,0 КГц
Битовая глубина : 16 бит
Метод сжатия : С потерями
Размер потока : 115 Мбайт (8%)
Язык : Spanish
Default : Нет
Forced : Нет

Текст
Идентификатор : 4
Формат : UTF-8
Идентификатор кодека : S_TEXT/UTF8
Идентификатор кодека/Информация : UTF-8 Plain Text
Заголовок : femme & capam
Язык : Russian
Default : Нет
Forced : Нет

Меню
00:00:00.000 : :Chapter 01
00:06:37.520 : :Chapter 02
00:10:14.480 : :Chapter 03
00:16:20.040 : :Chapter 04
00:23:37.160 : :Chapter 05
00:30:04.600 : :Chapter 06
00:43:26.200 : :Chapter 07
00:51:24.880 : :Chapter 08
01:01:31.240 : :Chapter 09
01:11:03.520 : :Chapter 10
01:21:16.080 : :Chapter 11


Ни за что не умру в одиночку скачать торрент


piratbit.pw



Скачать Ни за что не умру в одиночку через торрент https://pic1.kartinco.top/images/21/wajq1k8ith.jpg Скачать фильм Ни за что не умру в одиночку через торрент бесплантно в хорошем качестве Описание: Четыре девушки в машине,делают ошибку, взяв умирающую девушку на обочине дороги.… Их скоро найдут три охотника-скота лишенных ... 7.6 10 8
Info! Золотая раздача, скачанное не засчитывается.
Торрент: Зарегистрирован [2013-06-21 15:18] · скачан: 108 раз
Статус: √ проверено
Размер: 1.45 GB
Как cкачать? Как скачать Ни за что не умру в одиночку через торрент | UTorrent

28-11-2019 20:33  

Отключить всю рекламу на сайте


21-06-2013 15:44 Ни за что не умру в одиночку Скачать торрент  

А где все картинки!piratbit.pw



21-06-2013 16:30 Ни за что не умру в одиночку Скачать торрент  

Doctor_Zlo_666 писал(а):

А где все картинки!

картинки под спойлером скриншоты. у меня все отображаетсяpiratbit.pw



21-06-2013 17:33 Ни за что не умру в одиночку Скачать торрент  

"Бюджет: $6 000" - не густо sarcastic Всем актёрам по 100$, бутылка водки и оргия на дорожку piratbit.pw



    Дорогой пользователь! Огромная просьба, поблагодарите релизера, оцените раздачу и оставьте свои комментарий, если Вы скачали Ни за что не умру в одиночку через торрент бесплатно! Внесите свою лепту в развитие PiratBit!
    Комментировать посты могут только пользователи прошедшие не сложную регистрацию
    Показать сообщения:    

    Ни за что не умру в одиночку через торрент
    Скачать бесплатно Ни за что не умру в одиночку
    Ни за что не умру в одиночку скачать торрент
    Ни за что не умру в одиночку смотреть онлайн
    Cкачать фильм Ни за что не умру в одиночку бесплатно
    Ни за что не умру в одиночку скачать торрент в хорошем качестве
    Ни за что не умру в одиночку смотреть онлайн бесплатно в хорошем качестве


    Вы не можете начинать темы
    Вы не можете отвечать на сообщения
    Вы не можете редактировать свои сообщения
    Вы не можете удалять свои сообщения
    Вы не можете голосовать в опросах
    Вы не можете прикреплять файлы к сообщениям
    Вы можете скачивать файлы