1 сезон

1 сезон

iTunes

1

iTunes

Кинопоиск HD

iTunes

13

1 сезон

RePack

30

Deluxe

ВАЖНО

ИГРА 18+

pack

RePack

MK11
pack

Легкие деньги

RePack

jed

RePack

fifa19

RePack

RDR2

RePack

NEED FOR SPEED™ PAYBACK

4 сезон

9 сезон

Бесстыжие 9 сезон

Все сериалы

все сериалы на PB.wtf

RePack

FAR CRY 5
  
Magnet ссылка

Точка обстрела / Vantage Point (Пит Трэвис) [2008 г., боевик, триллер, драма, криминал, Дубляж + Оригинал] piratbit.pw

Точка обстрела через торрент piratbit.pw

Размер: 2.19 GB | Добавлен: 7 лет 10 мес. назад | Торрент скачан:208 раз
Скачать  

20-06-2013 09:33 Точка обстрела Скачать торрент  

Точка обстрела / Vantage Point Год выпуска: 2008
Страна: США
Производство: Art In Motion, Columbia Pictures, Original Film
Жанр: боевик, триллер, драма, криминал
Продолжительность: 01:30:05
Перевод: Дубляж + Оригинал
Субтитры: Not Present

Режиссер: Пит Трэвис
Продюссер: Нил Х. Мориц, Рикардо Дель Рио, Каллум Грин
Сценарий: Бэрри Леви
Бюджет: $40 000 000
Премьера в мире: 13 февраля 2008



В ролях: Деннис Куэйд, Мэттью Фокс, Форест Уитакер, Саид Тагмауи, Айелет Зурер, Эдгар Рамирез, Уильям Хёрт, Эдуардо Норьега, Зои Салдана, Сигурни Уивер, Артур Ваха, Андрей Лёвин, Вадим Гущин, Сергей Дьячков, Иван Паршин,

Описание: Во время публичного выступления на антитеррористическом форуме в Саламанке, Испания от рук экстремистов погибает президент США — так, по-крайней мере, событие выглядит на первый взгляд. Вслед за этим мощный взрыв убивает сотни людей. Случившееся показано с разных точек зрения: сотрудников спецслужб, случайных прохожих, террориста-фанатика...Только проследив за происходящим через призму восприятия каждого из этих людей, можно приблизиться к пониманию истиной сути событий, связанных с покушением.



Сэмпл / Трейлер

  • Качество: HDRip
  • Формат: AVI
  • Видео кодек: XviD
  • Аудио кодек: AC3
  • Видео: MPEG4, XviD, 720x304 (2.40:1), 23.976 fps, 2 115 Kbps (0.403 bit/pixel)
  • Аудио#1: AC-3, 48.0 KHz, 6 ch, 448 Kbps, CBR (Russian)
  • Аудио#2: AC-3, 48.0 KHz, 6 ch, 448 Kbps, CBR (Ukrainian)
  • Аудио#3: AC-3, 48.0 KHz, 6 ch, 448 Kbps, CBR (English)
    Формат : AVI
    Формат/Информация : Audio Video Interleave
    Профиль формата : OpenDML
    Размер файла : 2,19 Гбайт
    Продолжительность : 1 ч. 30 м.
    Общий поток : 3483 Кбит/сек
    Название фильма : Vantage.Point.2008.HDRip.kep
    Жанр : боевик, триллер, криминал
    Программа кодирования : VirtualDubModRus 1.5.10.2 (build 2542/release)
    Библиотека кодирования : VirtualDubMod build 2542/release
    Формат оригинала/Имя : Movie
    Правообладатель : Rip prepared for piratbit.cc
    Примечание : Rip ot kep

    Видео
    Идентификатор : 0
    Формат : MPEG-4 Visual
    Профиль формата : Advanced Simple@L5
    Параметр BVOP формата : 2
    Параметр QPel формата : Нет
    Параметр GMC формата : Без точки перехода
    Параметр матрицы формата : Default (MPEG)
    Идентификатор кодека : XVID
    Идентификатор кодека/Подсказка : XviD
    Продолжительность : 1 ч. 30 м.
    Битрейт : 2115 Кбит/сек
    Ширина : 720 пикселей
    Высота : 304 пикселя
    Соотношение сторон : 2,40:1
    Частота кадров : 23,976 кадра/сек
    Цветовое пространство : YUV
    Субдискретизация насыщенности : 4:2:0
    Битовая глубина : 8 бит
    Тип развёртки : Прогрессивная
    Метод сжатия : С потерями
    Бит/(Пиксели*Кадры) : 0.403
    Размер потока : 1,33 Гбайт (61%)
    Библиотека кодирования : XviD 1.2.1 (UTC 2008-12-04)

    Аудио #1
    Идентификатор : 1
    Формат : AC-3
    Формат/Информация : Audio Coding 3
    Расширение режима : CM (complete main)
    Параметр Endianness формата : Big
    Идентификатор кодека : 2000
    Продолжительность : 1 ч. 30 м.
    Вид битрейта : Постоянный
    Битрейт : 448 Кбит/сек
    Каналы : 6 каналов
    Расположение каналов : Front: L C R, Side: L R, LFE
    Частота : 48,0 КГц
    Битовая глубина : 16 бит
    Метод сжатия : С потерями
    Размер потока : 289 Мбайт (13%)
    Выравнивание : Разделение по промежуткам
    Продолжительность промежутка : 42 мс. (1,00 видеокадр)
    Время предзагрузки промежутка : 500 мс.
    Заголовок : Russian

    Аудио #2
    Идентификатор : 2
    Формат : AC-3
    Формат/Информация : Audio Coding 3
    Расширение режима : CM (complete main)
    Параметр Endianness формата : Big
    Идентификатор кодека : 2000
    Продолжительность : 1 ч. 30 м.
    Вид битрейта : Постоянный
    Битрейт : 448 Кбит/сек
    Каналы : 6 каналов
    Расположение каналов : Front: L C R, Side: L R, LFE
    Частота : 48,0 КГц
    Битовая глубина : 16 бит
    Метод сжатия : С потерями
    Размер потока : 289 Мбайт (13%)
    Выравнивание : Разделение по промежуткам
    Продолжительность промежутка : 42 мс. (1,00 видеокадр)
    Время предзагрузки промежутка : 500 мс.
    Заголовок : Ukrainian

    Аудио #3
    Идентификатор : 3
    Формат : AC-3
    Формат/Информация : Audio Coding 3
    Расширение режима : CM (complete main)
    Параметр Endianness формата : Big
    Идентификатор кодека : 2000
    Продолжительность : 1 ч. 30 м.
    Вид битрейта : Постоянный
    Битрейт : 448 Кбит/сек
    Каналы : 6 каналов
    Расположение каналов : Front: L C R, Side: L R, LFE
    Частота : 48,0 КГц
    Битовая глубина : 16 бит
    Метод сжатия : С потерями
    Размер потока : 289 Мбайт (13%)
    Выравнивание : Разделение по промежуткам
    Продолжительность промежутка : 42 мс. (1,00 видеокадр)
    Время предзагрузки промежутка : 500 мс.
    Заголовок : English
    скриншот   скриншот   скриншот   скриншот   скриншот   piratbit.pw



  • Скачать Точка обстрела через торрент http://i4.imageban.ru/out/2013/06/20/9a55c5c5f2442cd86b999d981e5a2681.png Скачать фильм Точка обстрела через торрент бесплантно в хорошем качестве Описание: Во время публичного выступления на антитеррористическом форуме в Саламанке, Испания от рук экстремистов погибает президент США — ... 8.7 10 11
    Info! Золотая раздача, скачанное не засчитывается.
    Торрент: Зарегистрирован [2013-06-20 09:33] · скачан: 208 раз
    Статус: √ проверено
    Размер: 2.19 GB
    Как cкачать? Как скачать Точка обстрела через торрент | UTorrent

    % Раздел Тема Автор DL S | L
    Фильмы 2006-2008 [ 2.23 GB ] Точка обстрела / Vantage Point [2008 BDRip DUB ] Dean24 Скачать
    1 | 0
    Фильмы 2006-2008 [ 1.37 GB ] Точка обстрела / Vantage Point [2008 HDRip лицензия] vev63 Скачать
    1 | 0
    Фильмы 2006-2008 [ 1.73 GB ] Точка обстрела / Vantage Point [2008 ... DVDRip] Lexa555__ Скачать
    1 | 0
    Фильмы [HD 720p, 1080p] (Хороший звук DUB, MVO) [ 7.99 GB ] Точка обстрела / Vantage Point [2008 BDRip] Joup Скачать
    1 | 0

    28-11-2019 20:33  

    Отключить всю рекламу на сайте

      Дорогой пользователь! Огромная просьба, поблагодарите релизера, оцените раздачу и оставьте свои комментарий, если Вы скачали Точка обстрела через торрент бесплатно! Внесите свою лепту в развитие PiratBit!
      Комментировать посты могут только пользователи прошедшие не сложную регистрацию
      Показать сообщения:    

      Точка обстрела через торрент
      Скачать бесплатно Точка обстрела
      Точка обстрела скачать торрент
      Точка обстрела смотреть онлайн
      Cкачать фильм Точка обстрела бесплатно
      Точка обстрела скачать торрент в хорошем качестве
      Точка обстрела смотреть онлайн бесплатно в хорошем качестве


      Вы не можете начинать темы
      Вы не можете отвечать на сообщения
      Вы не можете редактировать свои сообщения
      Вы не можете удалять свои сообщения
      Вы не можете голосовать в опросах
      Вы не можете прикреплять файлы к сообщениям
      Вы можете скачивать файлы