1 сезон

1 сезон

iTunes

1

КиноПоиск HD

Кинопоиск HD

iTunes

13

1 сезон

RePack

30

Deluxe

ВАЖНО

ИГРА 18+

pack

RePack

MK11
pack

Легкие деньги

RePack

jed

RePack

fifa19

RePack

RDR2

RePack

NEED FOR SPEED™ PAYBACK

4 сезон

9 сезон

Бесстыжие 9 сезон

Все сериалы

все сериалы на PB.wtf

RePack

FAR CRY 5
  
Magnet ссылка

Последняя охота / The Hunt (Фриц Кирш / Fritz Kiersch) [2006 , США , ужасы, фантастика, триллер , DVDRip] MVO piratbit.pw

Последняя охота через торрент piratbit.pw

Размер: 1.37 GB | Добавлен: 7 лет 10 мес. назад | Торрент скачан:88 раз
Скачать  

17-06-2013 17:36 Последняя охота Скачать торрент  

Последняя охота / The Hunt


  • Год выпуска:2006
  • Страна: США
  • Жанр:ужасы, фантастика, триллер
  • Продолжительность: 01:26:26
  • Перевод:Профессиональный (многоголосый, закадровый)


    • Режиссер: Фриц Кирш / Fritz Kiersch
    • Продюсер: Джонатан Де Ла Луз / Jonathan de la Luz, Дэнни Мартин / Danny Martin, Грэй Фредериксон / Gray Frederickson, Джон Симонелли / John Simonelli
    • Сценарий:Джонатан Де Ла Луз / Jonathan de la Luz, Фриц Кирш / Fritz Kiersch, Дэнни Мартин / Danny Martin

  • В ролях:Джо Майкл Бурк (Jack Hamberg), Клифф Де Янг (Jon Kraw), Роберт Раслер (Atticus Monroe), Митчелл Барнс (Clint), Эми Симонелли Бриди (Tessa Kraw Hamberg), Томас Каннингэм (Hunter), Бекки Лав (Jean Kraw), Джон Дозьер (Kid), Бретт Бауэр (Counterman), Джон Хорнбакл (OCAT Man), Брэндон Х. Филдс (Tom Hayes)
    • Описание:
      Джек отправляется вместе со своим пасынком на съемки захватывающего фильма об охоте. Бывалый оператор Аттикус фиксирует на пленку каждый его шаг, ведь Джек обещал, что они увидят засаду, погоню и даже убийство! Проникнув на запретную территорию в густой чаще леса, охотники обнаруживают непонятные сооружения и следы.
      Смеркается и следопыты решают переночевать на новом месте, чтобы разузнать, что к чему. Ответ они получат этой ночью! В этом загадочном месте сбудутся все обещания Джека, ведь они набрели на первоклассные охотничьи угодья. Проблема лишь в том, что здесь человек - всего лишь беспомощная добыча очень странных существ...

  • Рейтинг
    kinopoisk.ru: 5.316 (67)
    imdb.com: 4.90 (424)
    MPAA: R - Лицам до 17 лет обязательно присутствие взрослого
    • Качество: DVDRip
    • Формат: AVI
    • Видео кодек: DivX 5
    • Аудио кодек: AC3
    • Видео: DivX 5, 720x544 (4:3), 1810 kbps, 25 fps, 0,185 bpp
    • Аудио: AC3 / 5.1 / 48 kHz / 448 kbps / 16 bit , 48 kHz

    General
    Complete name : D:ТорентыПоследняя Охота (2006).avi
    Format : AVI
    Format/Info : Audio Video Interleave
    File size : 1.37 GiB
    Duration : 1h 26mn
    Overall bit rate : 2 265 Kbps
    Writing application : VirtualDubMod 1.5.4.1 (build 2178/release)
    Writing library : VirtualDubMod build 2178/release

    Video
    ID : 0
    Format : MPEG-4 Visual
    Format settings, BVOP : No
    Format settings, QPel : No
    Format settings, GMC : No warppoints
    Format settings, Matrix : Default (H.263)
    Codec ID : DX50
    Codec ID/Hint : DivX 5
    Duration : 1h 26mn
    Bit rate : 1 810 Kbps
    Width : 720 pixels
    Height : 544 pixels
    Display aspect ratio : 4:3
    Frame rate : 25.000 fps
    Color space : YUV
    Chroma subsampling : 4:2:0
    Bit depth : 8 bits
    Scan type : Progressive
    Compression mode : Lossy
    Bits/(Pixel*Frame) : 0.185
    Stream size : 1.09 GiB (80%)
    Writing library : DivX 5.2.1 (WaffleDay) (UTC 2004-09-08)

    Audio
    ID : 1
    Format : AC-3
    Format/Info : Audio Coding 3
    Mode extension : CM (complete main)
    Codec ID : 2000
    Duration : 1h 26mn
    Bit rate mode : Constant
    Bit rate : 448 Kbps
    Channel(s) : 6 channels
    Channel positions : Front: L C R, Side: L R, LFE
    Sampling rate : 48.0 KHz
    Bit depth : 16 bits
    Compression mode : Lossy
    Stream size : 277 MiB (20%)
    Alignment : Split accross interleaves
    Interleave, duration : 96 ms (2.40 video frames)
    Interleave, preload duration : 96 ms
    Сценарий: Джонатан Де Ла Луз / Jonathan de la Luz, Фриц Кирш / Fritz Kiersch, Дэнни Мартин / Danny Martin
    Продюсер: Джонатан Де Ла Луз / Jonathan de la Luz, Дэнни Мартин / Danny Martin, Грэй Фредериксон / Gray Frederickson, Джон Симонелли / John Simonelli
    Оператор: Майкл Гои / Michael Goi
    Композитор: Шон Моррис / Sean Morris

    Бюджет: $500 000

    Мировая премьера: 11 декабря 2006
    Релиз на DVD: 3 сентября 2009, «Парадиз Медиа»


    Скриншоты


    © Оформление by Vetalpiratbit.pw



  • Скачать Последняя охота через торрент http://i46.fastpic.ru/big/2013/0617/10/35ff702f015a65ec329995f98c6f4910.png Скачать фильм Последняя охота через торрент бесплантно в хорошем качестве Описание:Джек отправляется вместе со своим пасынком на съемки захватывающего фильма об охоте. Бывалый оператор Аттикус фиксирует на пленку ... 10 10 3
    Info! Золотая раздача, скачанное не засчитывается.
    Торрент: Зарегистрирован [2013-06-17 17:36] · скачан: 88 раз
    Статус: √ проверено
    Размер: 1.37 GB
    Как cкачать? Как скачать Последняя охота через торрент | UTorrent

    28-11-2019 20:33  

    Отключить всю рекламу на сайте

      Дорогой пользователь! Огромная просьба, поблагодарите релизера, оцените раздачу и оставьте свои комментарий, если Вы скачали Последняя охота через торрент бесплатно! Внесите свою лепту в развитие PiratBit!
      Комментировать посты могут только пользователи прошедшие не сложную регистрацию
      Показать сообщения:    

      Последняя охота через торрент
      Скачать бесплатно Последняя охота
      Последняя охота скачать торрент
      Последняя охота смотреть онлайн
      Cкачать фильм Последняя охота бесплатно
      Последняя охота скачать торрент в хорошем качестве
      Последняя охота смотреть онлайн бесплатно в хорошем качестве


      Вы не можете начинать темы
      Вы не можете отвечать на сообщения
      Вы не можете редактировать свои сообщения
      Вы не можете удалять свои сообщения
      Вы не можете голосовать в опросах
      Вы не можете прикреплять файлы к сообщениям
      Вы можете скачивать файлы