Ссылка на приватное зеркало нашего сайта всего за 1$. Внимание количество ограничено!!!

2 сезон

iTunes

iTunes

1

iTunes

iTunes

iTunes

WEBRip

iTunes

30
pack

Вам бонус

ВАЖНО

!!Акция!!

Alien_RageХит недели

RePack

Horizon Zero Dawn

ИГРА 18+

pack

RePack

jed

!!Акция!!

Alien_Rage

RePack

fifa19

RePack

Assassins Creed: Odyssey

RePack

NEED FOR SPEED™ PAYBACK

4 сезон

9 сезон

Бесстыжие 9 сезон

Все сериалы

все сериалы на PB.wtf

RePack

FAR CRY 5
  

Бой с тенью 3D: Последний раунд (Алексей Сидоров) [2011 г., боевик, драма, криминал, приключения, BDRip 720p, лицензия] piratbit.pw

Бой с тенью 3D: Последний раунд через торрент piratbit.pw

Размер: 8.85 GB | Добавлен: 7 лет 3 мес. назад | Торрент скачан:25 раз
Скачать  

15-06-2013 10:32 Бой с тенью 3D: Последний раунд Скачать торрент  

Бой с тенью 3D: Последний раунд «Последний раунд решает всё» Год выпуска: 2011
Страна: Россия
Жанр: боевик, драма, криминал, приключения
Продолжительность: 02:06:36
Тип релиза: Лицензия
Субтитры: Нет

Режиссер: Алексей Сидоров
Продюссер: Алексей Сидоров
Сценарий: Алексей Сидоров, Егор Головенкин

Бюджет: $13 645 556
Премьера в мире: 24 ноября 2011

Зрителям, достигшим 16 лет

IMDB 6.10 (329)

В ролях: Денис Никифоров, Андрей Панин, Елена Панова, Бату Хасиков, Михаил Горевой, Дмитрий Шевченко, Ольга Дибцева, Софья Мицкевич, Сергей Рябых, Шакрит Ямнарм

Описание: Боксер-чемпион Артем Колчин достиг всех мыслимых вершин и стал национальным героем. На ринг он больше не выходит, предпочитая тренерскую работу и бурную светскую жизнь с постоянным мельканием на ТВ, тусовками и интрижками. А дома его по утрам встречают дочка и жена Вика, которая больше не узнает в нем того Артема, которого она когда-то полюбила...Внешне благополучному существованию Колчина приходит конец, когда его подопечного чуть не убивает в бою знаменитый Куэрте. Артем подозревает, что тот использует некую запрещенную технику. За доказательствами ему приходится отправиться в Гонконг, где его ждет старый знакомый Вагит Валиев: он знает о Куэрте то, чего не знает больше ни один человек. Чтобы победить, Артему придется снова выйти на ринг.

Качество: BDRip 720p
Формат: MKV
Видео кодек: H.264
Аудио кодек: DTS
Видео: 1280x536 (2.35:1), 23.976 fps, 8 500 Kbps (0.517 bit/pixel)
Аудио#1: DTS, 48.0 KHz, 6 ch, 1 510 Kbps, CBR (Russian)


Общее
Уникальный идентификатор : 218513830779678985070176919097931323490 (0xA4643BA5A27B7EEC91055544AB25D862)
Полное имя : F:Бой с тенью 3D Последний раунд.2011.BDRip.x264.mkv
Формат : Matroska
Версия формата : Version 2
Размер файла : 8,85 Гбайт
Продолжительность : 2 ч. 6 м.
Общий поток : 10,0 Мбит/сек
Название фильма : Бой с тенью 3D
Дата кодирования : UTC 2012-02-02 14:00:09
Программа кодирования : mkvmerge v5.2.0 ('I can't explain') built on Dec 18 2011 18:12:03
Библиотека кодирования : libebml v1.2.3 + libmatroska v1.3.0

Видео
Идентификатор : 1
Формат : AVC
Формат/Информация : Advanced Video Codec
Профиль формата : High@L4.1
Параметр CABAC формата : Да
Параметр ReFrames формата : 12 кадров
Идентификатор кодека : V_MPEG4/ISO/AVC
Продолжительность : 2 ч. 6 м.
Битрейт : 8500 Кбит/сек
Ширина : 1280 пикселей
Высота : 536 пикселей
Соотношение сторон : 2,40:1
Режим частоты кадров : Постоянный
Частота кадров : 23,976 кадра/сек
Цветовое пространство : YUV
Субдискретизация насыщенности : 4:2:0
Битовая глубина : 8 бит
Тип развёртки : Прогрессивная
Бит/(Пиксели*Кадры) : 0.517
Размер потока : 7,34 Гбайт (83%)
Заголовок : Boj.s.tenju.3D.Poslednij.Raund.2011.Blu-ray.x264
Библиотека кодирования : x264 core 120 r2146 bcd41db
Настройки программы : cabac=1 / ref=12 / deblock=1:-3:-3 / analyse=0x3:0x113 / me=tesa / subme=11 / psy=1 / psy_rd=1.50:0.00 / mixed_ref=1 / me_range=24 / chroma_me=1 / trellis=2 / 8x8dct=1 / cqm=0 / deadzone=21,11 / fast_pskip=0 / chroma_qp_offset=-2 / threads=12 / sliced_threads=0 / nr=0 / decimate=0 / interlaced=0 / bluray_compat=0 / constrained_intra=0 / bframes=6 / b_pyramid=2 / b_adapt=2 / b_bias=0 / direct=3 / weightb=1 / open_gop=0 / weightp=2 / keyint=240 / keyint_min=24 / scenecut=40 / intra_refresh=0 / rc_lookahead=60 / rc=2pass / mbtree=0 / bitrate=8500 / ratetol=1.0 / qcomp=0.80 / qpmin=0 / qpmax=69 / qpstep=4 / cplxblur=20.0 / qblur=0.5 / vbv_maxrate=50000 / vbv_bufsize=62500 / nal_hrd=none / ip_ratio=1.40 / pb_ratio=1.10 / aq=1:0.90
Язык : English
Default : Да
Forced : Нет
Коэффициенты матрицы : BT.709

Аудио
Идентификатор : 2
Формат : DTS
Формат/Информация : Digital Theater Systems
Режим : 16
Параметр Endianness формата : Big
Идентификатор кодека : A_DTS
Продолжительность : 2 ч. 6 м.
Вид битрейта : Постоянный
Битрейт : 1509 Кбит/сек
Каналы : 6 каналов
Расположение каналов : Front: L C R, Side: L R, LFE
Частота : 48,0 КГц
Битовая глубина : 24 бит
Метод сжатия : С потерями
Размер потока : 1,33 Гбайт (15%)
Язык : Russian
Default : Да
Forced : Нет

Меню
00:00:00.000 : ru:Глава 1
00:08:26.172 : ru:Глава 2
00:15:19.293 : ru:Глава 3
00:21:52.394 : ru:Глава 4
00:29:31.853 : ru:Глава 5
00:38:35.146 : ru:Глава 6
00:46:58.357 : ru:Глава 7
00:55:38.794 : ru:Глава 8
01:05:58.371 : ru:Глава 9
01:14:37.556 : ru:Глава 10
01:21:14.119 : ru:Глава 11
01:31:43.456 : ru:Глава 12
01:39:16.701 : ru:Глава 13
01:46:14.451 : ru:Глава 14
01:53:16.999 : ru:Глава 15
02:01:41.127 : ru:Глава 16


Бой с тенью 3D: Последний раунд скачать торрент


piratbit.pw



Скачать Бой с тенью 3D: Последний раунд через торрент http://pic.kartinco.top/images/2/f9niiqupfn.png Скачать фильм Бой с тенью 3D: Последний раунд через торрент бесплантно в хорошем качестве Описание: Боксер-чемпион Артем Колчин достиг всех мыслимых вершин и стал национальным героем. На ринг он больше не выходит, предпочитая ... 6 10 9
Info! Золотая раздача, скачанное не засчитывается.
Торрент: Зарегистрирован [2013-06-15 10:32] · скачан: 25 раз
Статус: √ проверено
Размер: 8.85 GB
Как cкачать? Как скачать Бой с тенью 3D: Последний раунд через торрент | qTorrent

% Раздел Тема Автор DL S | L
Наши фильмы 2010-2011 [ 2.17 GB ] Бой с тенью 3D: Последний раунд [2011 ьная​ BDRip-AVC] tserkovnye Скачать
1 | 0
Наши фильмы 2010-2011 [ 2.18 GB ] Бой с тенью 3D: Последний раунд [2011 BDRip] Anonymous Скачать
1 | 0
Наши фильмы (DVD фильмы) [ 4.35 GB ] Бой с тенью 3D: Последний раунд [2011 Россия DVD5 ] исх. R5 Original Rus walle Скачать
1 | 0
Наши фильмы 2010-2011 [ 2.05 GB ] Бой с тенью 3D: Последний раунд [2011 DVDRip лицензия] WISE Скачать
1 | 0
Наши фильмы (DVD фильмы) [ 7.77 GB ] Бой с тенью 3D: Последний раунд [2011 DVD9] R5 voovaz Скачать
1 | 0

28-11-2019 20:33  

Отключить всю рекламу на сайте

    Дорогой пользователь! Огромная просьба, поблагодарите релизера, оцените раздачу и оставьте свои комментарий, если Вы скачали Бой с тенью 3D: Последний раунд через торрент бесплатно! Внесите свою лепту в развитие PiratBit!
    Комментировать посты могут только пользователи прошедшие не сложную регистрацию
    Показать сообщения:    

    Бой с тенью 3D: Последний раунд через торрент
    Скачать бесплатно Бой с тенью 3D: Последний раунд
    Бой с тенью 3D: Последний раунд скачать торрент
    Бой с тенью 3D: Последний раунд смотреть онлайн
    Cкачать фильм Бой с тенью 3D: Последний раунд бесплатно
    Бой с тенью 3D: Последний раунд скачать торрент в хорошем качестве
    Бой с тенью 3D: Последний раунд смотреть онлайн бесплатно в хорошем качестве


    Вы не можете начинать темы
    Вы не можете отвечать на сообщения
    Вы не можете редактировать свои сообщения
    Вы не можете удалять свои сообщения
    Вы не можете голосовать в опросах
    Вы не можете прикреплять файлы к сообщениям
    Вы можете скачивать файлы