1 сезон

3 сезон

iTunes

1

iTunes

DUB Netflix

iTunes

13

1 сезон

RePack

30

Deluxe

pack

Легкие деньги

ВАЖНО

ИГРА 18+

pack

RePack

MK11

RePack

jed

RePack

fifa19

RePack

RDR2

RePack

NEED FOR SPEED™ PAYBACK

4 сезон

9 сезон

Бесстыжие 9 сезон

Все сериалы

все сериалы на PB.wtf

RePack

FAR CRY 5

Anonymous, доброе утро, мы не успеваем до 1 числа собрать деньги на оплату серверов, помогите нам пожалуйста в это трудное время. В качестве благодарности мы отключим Вам всю рекламу на сайте (укажите свой ник в строку Ваше имя)!

×
  
Magnet ссылка

Джек Брукс / Jack Brooks: Monster Slayer [x264] (Джон Наутц) [2007 г., ужасы, боевик, комедия, BDRip, Профессиональный двухголосый] piratbit.pw

Джек Брукс через торрент piratbit.pw

Размер: 1.37 GB | Добавлен: 8 лет назад | Торрент скачан:108 раз
Скачать  

10-06-2013 13:06 Джек Брукс Скачать торрент  

Джек Брукс / Jack Brooks: Monster Slayer [x264]
Год выпуска: 2007
Страна: Канада
Жанр: ужасы, боевик, комедия,
Продолжительность: 85 мин. / 01:25
Перевод: Профессиональный двухголосый

Режиссер: Джон Наутц
Продюссер: Нил Брегман, Тревор Мэтьюз, Патрик Уайт
Сценарий: Джон Айнсли, Джон Наутц, Тревор Мэтьюз

Бюджет: 9 октября 2007
Премьера в мире: 9 октября 2007

IMDB 6.00 (3 971)



В ролях: Роберт Инглунд, Тревор Мэтьюз, Дэниэл Кэш, Дэвид Фокс, Дин Хоуз, Рэйчел Скарстен, Джеймс А. Вудс, Эшли Брайант, Стефани Драммонд, Чад Харбер,

Описание: После наблюдения зверского убийства его семьи Джек Брукс остается с неутолимой яростью, с которой постоянно борется, чтобы управлять собой. Теперь он работает местным водопроводчиком. Однажды ночью, Джек пытается заменить у Профессора старые, подвергнутые коррозии трубы, но бессознательно пробуждает древнее зло. Соблазняемый этой демонической властью, Профессор обнаруживает чудовищного злодея, который быстро просыпается в нем.

Качество: BDRip [BDRip 1080p]
Формат: MKV
Видео кодек: H.264
Аудио кодек: AC3
Видео: AVC, 704x400 (16:9), 23.976 fps, 1 910 Kbps (0.283 bit/pixel)
Аудио#1: AC-3, 48.0 KHz, 6 ch, 384 Kbps, CBR (Russian)
Релиз от: xGhost




General
Unique ID : 215605520965402559005194099415148439067 (0xA2341CE707D856EBA622CC98815CA61B)
Complete name : D:Dzhek.Bruks.2007.x264.HDRip.Rus.1400MB.mkv
Format : Matroska
Format version : Version 2
File size : 1.37 GiB
Duration : 1h 25mn
Overall bit rate : 2 295 Kbps
Encoded date : UTC 2013-06-10 12:55:13
Writing application : mkvmerge v6.2.0 ('Promised Land') built on Apr 28 2013 12:22:01
Writing library : libebml v1.3.0 + libmatroska v1.4.0

Video
ID : 1
Format : AVC
Format/Info : Advanced Video Codec
Format profile : High@L4.1
Format settings, CABAC : Yes
Format settings, ReFrames : 9 frames
Codec ID : V_MPEG4/ISO/AVC
Duration : 1h 25mn
Bit rate : 1 910 Kbps
Width : 704 pixels
Height : 400 pixels
Display aspect ratio : 16:9
Frame rate mode : Constant
Frame rate : 23.976 fps
Color space : YUV
Chroma subsampling : 4:2:0
Bit depth : 8 bits
Scan type : Progressive
Bits/(Pixel*Frame) : 0.283
Stream size : 1.11 GiB (81%)
Writing library : x264 core 130 r2273 b3065e6
Encoding settings : cabac=1 / ref=9 / deblock=1:-3:-3 / analyse=0x3:0x113 / me=umh / subme=7 / psy=1 / psy_rd=1.00:0.15 / mixed_ref=1 / me_range=32 / chroma_me=1 / trellis=1 / 8x8dct=1 / cqm=0 / deadzone=21,11 / fast_pskip=1 / chroma_qp_offset=-2 / threads=6 / lookahead_threads=1 / sliced_threads=0 / nr=0 / decimate=1 / interlaced=0 / bluray_compat=0 / constrained_intra=0 / bframes=3 / b_pyramid=2 / b_adapt=1 / b_bias=0 / direct=1 / weightb=1 / open_gop=0 / weightp=2 / keyint=240 / keyint_min=22 / scenecut=40 / intra_refresh=0 / rc_lookahead=40 / rc=2pass / mbtree=1 / bitrate=1910 / ratetol=1.0 / qcomp=0.60 / qpmin=10 / qpmax=51 / qpstep=4 / cplxblur=20.0 / qblur=0.5 / vbv_maxrate=50000 / vbv_bufsize=62500 / nal_hrd=none / ip_ratio=1.40 / aq=1:1.00
Default : Yes
Forced : No

Audio
ID : 2
Format : AC-3
Format/Info : Audio Coding 3
Mode extension : CM (complete main)
Format settings, Endianness : Big
Codec ID : A_AC3
Duration : 1h 25mn
Bit rate mode : Constant
Bit rate : 384 Kbps
Channel(s) : 6 channels
Channel positions : Front: L C R, Side: L R, LFE
Sampling rate : 48.0 KHz
Bit depth : 16 bits
Compression mode : Lossy
Stream size : 234 MiB (17%)
Language : Russian
Default : Yes
Forced : No


Джек Брукс скачать торрент


piratbit.pw



Скачать Джек Брукс через торрент http://s39.radikal.ru/i084/1107/21/8b73a52a694f.png Скачать фильм Джек Брукс через торрент бесплантно в хорошем качестве Описание: После наблюдения зверского убийства его семьи Джек Брукс остается с неутолимой яростью, с которой постоянно борется, чтобы ... 6.7 10 6
Info! Золотая раздача, скачанное не засчитывается.
Торрент: Зарегистрирован [2013-06-10 13:06] · скачан: 108 раз
Статус: √ проверено
Размер: 1.37 GB
Как cкачать? Как скачать Джек Брукс через торрент | UTorrent

% Раздел Тема Автор DL S | L
Фильмы 2006-2008 [ 1.37 GB ] Джек Брукс / Jack Brooks: Monster Slayer [2007 DVDRip] shuller Скачать
1 | 0

28-11-2019 20:33  

Отключить всю рекламу на сайте

10-06-2013 16:08 Джек Брукс Скачать торрент  

дайте скорости)))piratbit.pw



10-06-2013 17:59 Джек Брукс Скачать торрент  

NoiseSpace
Дадут, но не скорости piratbit.pw



10-06-2013 21:42 Джек Брукс Скачать торрент  

Трейлер шедевр , качать не буду =))))))))))))piratbit.pw



15-05-2014 18:22 Джек Брукс Скачать торрент  

кино огонь! советую!piratbit.pw



    Дорогой пользователь! Огромная просьба, поблагодарите релизера, оцените раздачу и оставьте свои комментарий, если Вы скачали Джек Брукс через торрент бесплатно! Внесите свою лепту в развитие PiratBit!
    Комментировать посты могут только пользователи прошедшие не сложную регистрацию
    Показать сообщения:    

    Джек Брукс через торрент
    Скачать бесплатно Джек Брукс
    Джек Брукс скачать торрент
    Джек Брукс смотреть онлайн
    Cкачать фильм Джек Брукс бесплатно
    Джек Брукс скачать торрент в хорошем качестве
    Джек Брукс смотреть онлайн бесплатно в хорошем качестве


    Вы не можете начинать темы
    Вы не можете отвечать на сообщения
    Вы не можете редактировать свои сообщения
    Вы не можете удалять свои сообщения
    Вы не можете голосовать в опросах
    Вы не можете прикреплять файлы к сообщениям
    Вы можете скачивать файлы