1 сезон

1 сезон

iTunes

1

iTunes

Кинопоиск HD

iTunes

13

1 сезон

RePack

30

Deluxe

ВАЖНО

ИГРА 18+

pack

RePack

MK11
pack

Легкие деньги

RePack

jed

RePack

fifa19

RePack

RDR2

RePack

NEED FOR SPEED™ PAYBACK

4 сезон

9 сезон

Бесстыжие 9 сезон

Все сериалы

все сериалы на PB.wtf

RePack

FAR CRY 5
  
Magnet ссылка

Во имя короля: История осады подземелья / In the Name of the King: A Dungeon Siege Tale [x264] (Уве Болл) [2006 г., фэнтези, боевик, драма, приключения, HDRip, Дубляж, лицензия] piratbit.pw

Во имя короля: История осады подземелья через торрент piratbit.pw

Размер: 2.05 GB | Добавлен: 7 лет 11 мес. назад | Торрент скачан:162 раза
Скачать  

08-06-2013 07:02 Во имя короля: История осады подземелья Скачать торрент  

Во имя короля: История осады подземелья / In the Name of the King: A Dungeon Siege Tale
Год выпуска: 2006
Страна: Германия
Жанр: фэнтези, боевик, драма, приключения,
Продолжительность: 121 мин. / 02:01
Перевод: Дубляж, Лицензия

Режиссер: Уве Болл
Продюссер: Уве Болл, Дэн Кларк, Шон Уильямсон
Сценарий: Даг Тейлор, Крис Тейлор, Джейсон Раппапорт

Бюджет: $60 000 000
Премьера в мире: 3 ноября 2006

Детям до 13 лет просмотр не желателен
IMDB 3.80 (31 050)



В ролях: Джейсон Стэйтем, Лили Собески, Джон Рис-Дэвис, Рон Перлман, Мэттью Лиллард, Рэй Лиотта, Брайан Дж. Уайт, Клэр Форлани, Кристанна Локен, Берт Рейнолдс, Олег Куценко, Татьяна Шитова, Пётр Иващенко, Илья Хвостиков, Юрий Деркач,

Описание: На фоне войны в королевстве Эхб между зловещим Галлианом и правящим королем Конредом, Фермер Дэймон ищет свою похищенную жену Солану и попутно мстит за смерть своего сына, убитого воинами-зверями Крагами.

Качество: HDRip
Формат: MKV
Видео кодек: H.264
Аудио кодек: AC3
Видео: AVC, 720x304 (2.35:1), 23.976 fps, 1 411 Kbps (0.269 bit/pixel)
Аудио#1: AC-3, 48.0 KHz, 6 ch, 448 Kbps, CBR (Russian)
Аудио#2: AC-3, 48.0 KHz, 6 ch, 448 Kbps, CBR (English)
Релиз от: xGhost
General
Unique ID : 237722251173671067619556615860238779742 (0xB2D7A3E40859EF92AFC7D30E8B8D855E)
Complete name : D:Во имя короля. История осады подземелья.2007.D.x264.HDRip.Rus.Eng.2100MB.mkv
Format : Matroska
Format version : Version 2
File size : 2.05 GiB
Duration : 2h 7mn
Overall bit rate : 2 309 Kbps
Encoded date : UTC 2013-06-07 22:08:13
Writing application : mkvmerge v6.2.0 ('Promised Land') built on Apr 28 2013 12:22:01
Writing library : libebml v1.3.0 + libmatroska v1.4.0

Video
ID : 1
Format : AVC
Format/Info : Advanced Video Codec
Format profile : High@L4.1
Format settings, CABAC : Yes
Format settings, ReFrames : 12 frames
Codec ID : V_MPEG4/ISO/AVC
Duration : 2h 7mn
Bit rate : 1 411 Kbps
Width : 720 pixels
Height : 304 pixels
Display aspect ratio : 2.35:1
Frame rate mode : Constant
Frame rate : 23.976 fps
Color space : YUV
Chroma subsampling : 4:2:0
Bit depth : 8 bits
Scan type : Progressive
Bits/(Pixel*Frame) : 0.269
Stream size : 1.21 GiB (59%)
Writing library : x264 core 130 r2273 b3065e6
Encoding settings : cabac=1 / ref=12 / deblock=1:-3:-3 / analyse=0x3:0x113 / me=umh / subme=7 / psy=1 / psy_rd=1.00:0.15 / mixed_ref=1 / me_range=32 / chroma_me=1 / trellis=1 / 8x8dct=1 / cqm=0 / deadzone=21,11 / fast_pskip=1 / chroma_qp_offset=-2 / threads=6 / lookahead_threads=1 / sliced_threads=0 / nr=0 / decimate=1 / interlaced=0 / bluray_compat=0 / constrained_intra=0 / bframes=3 / b_pyramid=2 / b_adapt=1 / b_bias=0 / direct=1 / weightb=1 / open_gop=0 / weightp=2 / keyint=240 / keyint_min=22 / scenecut=40 / intra_refresh=0 / rc_lookahead=40 / rc=2pass / mbtree=1 / bitrate=1411 / ratetol=1.0 / qcomp=0.60 / qpmin=10 / qpmax=51 / qpstep=4 / cplxblur=20.0 / qblur=0.5 / vbv_maxrate=50000 / vbv_bufsize=62500 / nal_hrd=none / ip_ratio=1.40 / aq=1:1.00
Default : Yes
Forced : No

Audio #1
ID : 2
Format : AC-3
Format/Info : Audio Coding 3
Mode extension : CM (complete main)
Format settings, Endianness : Big
Codec ID : A_AC3
Duration : 2h 7mn
Bit rate mode : Constant
Bit rate : 448 Kbps
Channel(s) : 6 channels
Channel positions : Front: L C R, Side: L R, LFE
Sampling rate : 48.0 KHz
Bit depth : 16 bits
Compression mode : Lossy
Stream size : 407 MiB (19%)
Language : Russian
Default : Yes
Forced : No

Audio #2
ID : 3
Format : AC-3
Format/Info : Audio Coding 3
Mode extension : CM (complete main)
Format settings, Endianness : Big
Codec ID : A_AC3
Duration : 2h 7mn
Bit rate mode : Constant
Bit rate : 448 Kbps
Channel(s) : 6 channels
Channel positions : Front: L C R, Side: L R, LFE
Sampling rate : 48.0 KHz
Bit depth : 16 bits
Compression mode : Lossy
Stream size : 407 MiB (19%)
Language : English
Default : No
Forced : No


Во имя короля: История осады подземелья скачать торрент


piratbit.pw



Скачать Во имя короля: История осады подземелья через торрент http://i29.fastpic.ru/big/2011/1112/6d/a6d2615547132bbf862483b54907026d.jpg Скачать фильм Во имя короля: История осады подземелья через торрент бесплантно в хорошем качестве Описание: На фоне войны в королевстве Эхб между зловещим Галлианом и правящим королем Конредом, Фермер Дэймон ищет свою похищенную жену ... 9 10 16
Info! Золотая раздача, скачанное не засчитывается.
Торрент: Зарегистрирован [2013-06-08 07:02] · скачан: 162 раз
Статус: √ проверено
Размер: 2.05 GB
Как cкачать? Как скачать Во имя короля: История осады подземелья через торрент | UTorrent

% Раздел Тема Автор DL S | L
Фильмы [HD 720p, 1080p] (Хороший звук DUB, MVO) [ 19.95 GB ] Во имя короля: История осады подземелья / In the Name of the King: A Dungeon Siege Tale [2006 BDRip 1080p] Dub + Original + Sub Seedtank Скачать
1 | 0
Фильмы 2006-2008 [ 1.47 GB ] Во имя короля: История осады подземелья / In the Name of the King: A Dungeon Siege Tale [2007 HDRip] Sудья Скачать
1 | 0
Фильмы [HD 720p, 1080p] (Хороший звук DUB, MVO) [ 5.58 GB ] Во имя короля: История осады подземелья / In the Name of the King: A Dungeon Siege Tale [2007 BDRip ] Flint3 Скачать
1 | 0

28-11-2019 20:33  

Отключить всю рекламу на сайте


08-06-2013 14:11 Во имя короля: История осады подземелья Скачать торрент  

Уве Болл *******......piratbit.pw



    Дорогой пользователь! Огромная просьба, поблагодарите релизера, оцените раздачу и оставьте свои комментарий, если Вы скачали Во имя короля: История осады подземелья через торрент бесплатно! Внесите свою лепту в развитие PiratBit!
    Комментировать посты могут только пользователи прошедшие не сложную регистрацию
    Показать сообщения:    

    Во имя короля: История осады подземелья через торрент
    Скачать бесплатно Во имя короля: История осады подземелья
    Во имя короля: История осады подземелья скачать торрент
    Во имя короля: История осады подземелья смотреть онлайн
    Cкачать фильм Во имя короля: История осады подземелья бесплатно
    Во имя короля: История осады подземелья скачать торрент в хорошем качестве
    Во имя короля: История осады подземелья смотреть онлайн бесплатно в хорошем качестве


    Вы не можете начинать темы
    Вы не можете отвечать на сообщения
    Вы не можете редактировать свои сообщения
    Вы не можете удалять свои сообщения
    Вы не можете голосовать в опросах
    Вы не можете прикреплять файлы к сообщениям
    Вы можете скачивать файлы