Ссылка на приватное зеркало всего за 1$. Внимание количество ограничено!!!

iTunes

iTunes

iTunes

1

iTunes

iTunes

iTunes

WEBRip

iTunes

30
pack

$ от Little Big

ВАЖНО

!!Акция!!

Alien_RageХит недели

RePack

Resident Evil 21

ИГРА 18+

pack

RePack

jed

!!Акция!!

Alien_Rage

RePack

fifa19

RePack

Assassins Creed: Odyssey

RePack

NEED FOR SPEED™ PAYBACK

4 сезон

9 сезон

Бесстыжие 9 сезон

Все сериалы

все сериалы на PB.wtf

RePack

FAR CRY 5
  

В водовороте неприятностей / No Entry (Анис Базми) [2005 г., комедия, мюзикл, драма, мелодрама, HDRip, Профессиональный двухголосый] piratbit.pw

В водовороте неприятностей через торрент piratbit.pw

Размер: 2.19 GB | Добавлен: 7 лет 2 мес. назад | Торрент скачан:18 раз
Скачать  

30-05-2013 11:48 В водовороте неприятностей Скачать торрент  

В водовороте неприятностей / No Entry
Год выпуска: 2005
Страна: Индия
Жанр: комедия, мюзикл, драма, мелодрама,
Продолжительность: 02:41:00
Перевод: Профессиональный (двухголосый,закадровый)
Субтитры: нет
Режиссер: Анис Базми
Продюссер: Бони Капур, Суриндер Капур, Балрадж Ирани
Сценарий: Анис Базми
Бюджет: $678 000
Премьера в мире: 26 августа 2005
IMDB 6.60 (3 286)

В ролях: Анил Капур, Салман Кхан, Фардин Кхан, Бипаша Басу, Лара Датта, Эша Деол, Селина Джейтли, Боман Ирани, Пареш Ганатра, Кавери Гхош
Описание: Кажется, что герои этого фильма, верный Кишан с ревнивой, но обожающей его Каджол, плейбой Прем с домашней и доверчивой Пуджей и фотограф Сани с невестой Санджаной составляют достаточно гармоничные любящие пары. Но стоит только в их жизни появиться сексапильной танцовщице Бобби, как они оказываются вовлеченными в водоворот неприятностей...
Качество: HDRip
Формат: AVI
Видео кодек: XviD
Аудио кодек: AC3
Видео: Xvid 720x304 24.00fps 1484 Kbps
Аудио: Dolby AC3 48000Hz 6ch 448kbps
Релиз от: BwTorrents.ru






General
Format : AVI
Format/Info : Audio Video Interleave
Format profile : OpenDML
File size : 2.19 GiB
Duration : 2h 41mn
Overall bit rate : 1 945 Kbps
Writing application : VirtualDubMod 1.5.10.2 (build 2540/release)
Writing library : VirtualDubMod build 2540/release

Video
ID : 0
Format : MPEG-4 Visual
Format profile : Advanced Simple@L5
Format settings, BVOP : Yes
Format settings, QPel : No
Format settings, GMC : No warppoints
Format settings, Matrix : Default (H.263)
Codec ID : XVID
Codec ID/Hint : XviD
Duration : 2h 41mn
Bit rate : 1 484 Kbps
Width : 720 pixels
Height : 304 pixels
Display aspect ratio : 2.35:1
Frame rate : 24.000 fps
Color space : YUV
Chroma subsampling : 4:2:0
Bit depth : 8 bits
Scan type : Progressive
Bits/(Pixel*Frame) : 0.283
Stream size : 1.67 GiB (76%)
Writing library : XviD 1.2.1 (UTC 2008-12-04)

Audio
ID : 1
Format : AC-3
Format/Info : Audio Coding 3
Mode extension : CM (complete main)
Codec ID : 2000
Duration : 2h 41mn
Bit rate mode : Constant
Bit rate : 448 Kbps
Channel(s) : 6 channels
Channel positions : Front: L C R, Side: L R, LFE
Sampling rate : 48.0 KHz
Bit depth : 16 bits
Stream size : 516 MiB (23%)
Alignment : Split accross interleaves
Interleave, duration : 42 ms (1.00 video frame)
Interleave, preload duration : 500 ms


В водовороте неприятностей скачать торрент


piratbit.pw



Скачать В водовороте неприятностей через торрент http://pic.kartinco.top/images/2/k1bhbkrw54.jpg Скачать фильм В водовороте неприятностей через торрент бесплантно в хорошем качестве Описание: Кажется, что герои этого фильма, верный Кишан с ревнивой, но обожающей его Каджол, плейбой Прем с домашней и доверчивой Пуджей и ... 9.4 10 7
Info! Золотая раздача, скачанное не засчитывается.
Торрент: Зарегистрирован [2013-05-30 11:48] · скачан: 18 раз
Статус: √ проверено
Размер: 2.19 GB
Как cкачать? Как скачать В водовороте неприятностей через торрент | qTorrent

28-11-2019 20:33  

Отключить всю рекламу на сайте

28-07-2020 19:40 В водовороте неприятностей Скачать торрент  

Индийский фильм в шапке..., 2005 года в шапке... Докатились...piratbit.pw



    Дорогой пользователь! Огромная просьба, поблагодарите релизера, оцените раздачу и оставьте свои комментарий, если Вы скачали В водовороте неприятностей через торрент бесплатно! Внесите свою лепту в развитие PiratBit!
    Комментировать посты могут только пользователи прошедшие не сложную регистрацию
    Показать сообщения:    

    В водовороте неприятностей через торрент
    Скачать бесплатно В водовороте неприятностей
    В водовороте неприятностей скачать торрент
    В водовороте неприятностей смотреть онлайн
    Cкачать фильм В водовороте неприятностей бесплатно
    В водовороте неприятностей скачать торрент в хорошем качестве
    В водовороте неприятностей смотреть онлайн бесплатно в хорошем качестве


    Вы не можете начинать темы
    Вы не можете отвечать на сообщения
    Вы не можете редактировать свои сообщения
    Вы не можете удалять свои сообщения
    Вы не можете голосовать в опросах
    Вы не можете прикреплять файлы к сообщениям
    Вы можете скачивать файлы