1 сезон

1 сезон

iTunes

1

КиноПоиск HD

Кинопоиск HD

iTunes

13

1 сезон

RePack

30

Deluxe

ВАЖНО

ИГРА 18+

pack

RePack

MK11
pack

Легкие деньги

RePack

jed

RePack

fifa19

RePack

RDR2

RePack

NEED FOR SPEED™ PAYBACK

4 сезон

9 сезон

Бесстыжие 9 сезон

Все сериалы

все сериалы на PB.wtf

RePack

FAR CRY 5
  
Magnet ссылка

Развод по-американски / The Break-Up (Пейтон Рид /Peyton Reed) [2006, США, Комедия, Мелодрама, HDRip] DUB piratbit.pw

Развод по-американски через торрент piratbit.pw

Размер: 1.46 GB | Добавлен: 7 лет 11 мес. назад | Торрент скачан:437 раз
Скачать  

29-05-2013 04:54 Развод по-американски Скачать торрент  

Развод по-американски / The Break-Up
Страна: США
Жанр: Комедия, Мелодрама
Год выпуска: 2006
Продолжительность: 01:46:27
Перевод: Профессиональный (дублированный)
Cубтитры: нет

Режиссер: Пейтон Рид /Peyton Reed
Сценарий: Джереми Гарелик / Jeremy Garelick, Джей Лавендер / Jay Lavender, Винс Вон / Vince Vaughn
Продюсер: Стюарт М. Бессер / Stuart M. Besser, Питер Биллингсли / Peter Billingsley, Джереми Гарелик / Jeremy Garelick
Оператор: Эрик Алан Эдвардс / Eric Alan Edwards
Композитор: Джон Брайон / Jon Brion
Художник: Эндрю Лоус / Andrew Laws , Дэвид Сэндфер / Дэвид Сэндфер, Кэрол Одитц / Carol Oditz
Монтаж: Дэн Лебентал / Dan Lebental, Дэвид Розенблюм / David Rosenblum

В ролях: Винс Вон / Vince Vaughn, Дженнифер Энистон / Jennifer Aniston, Джой Лорен Адамс / Joey Lauren Adams, Коул Хаузер / Cole Hauser, Джон Фавро / Jon Favreau, Джейсон Бэйтман / Jason Bateman

Роли дублировали: Юрий Деркач (Gary Grobowski ), Лариса Некипелова (Brooke Meyers), Ольга Зубкова (Addie), Сергей Быстрицкий (Lupus Grobowski), Олег Куценко (Johnny О), Андрей Казанцев (Riggleman), Людмила Ильина (Marilyn Dean), Илья Бледный (Christopher) и др.

Описание: Когда Брук и Гэри решили разойтись, все казалось простым и понятным. Не сошлись характерами. Такое бывает. И даже сплошь и рядом. Однако ни тот, ни другой не захотел торопиться и покидать насиженное местечко первым. Пауза затянулась.
С обеих сторон подтянулись друзья и доверенные лица. Началась война. В бывшем семействе. Или не в бывшем? Может быть, развод — это просто способ сказать «я тебя люблю»?

Качество видео: HDRip
Формат видео: AVI
Видео кодек: XviD
Аудио кодек: AC3
Видео: 720x384 (1.88:1), 23.976 fps, XviD build 50 ~1565 kbps avg, 0.24 bit/pixel
Аудио: 48 kHz, AC3 Dolby Digital, 3/2 (L,C,R,l,r) + LFE ch, ~384.00 kbps avg
Раздача от:
D:Razvod.po-amerikanski.2006.HDRip.DUB.[YTN]_by_dexter_lex.avi
General
Complete name : D:Razvod.po-amerikanski.2006.HDRip.DUB.[YTN]_by_dexter_lex.avi
Format : AVI
Format/Info : Audio Video Interleave
File size : 1.46 GiB
Duration : 1h 46mn
Overall bit rate : 1 959 Kbps
Writing application : VirtualDubMod 1.5.10.3 | www.virtualdub-fr.org || (build 2550/release)
Writing library : VirtualDubMod build 2550/release
Video #0
ID : 0
Format : MPEG-4 Visual
Format profile : Advanced Simple@L5
Format settings, BVOP : 1
Format settings, QPel : No
Format settings, GMC : No warppoints
Format settings, Matrix : Custom
Codec ID : XVID
Codec ID/Hint : XviD
Duration : 1h 46mn
Bit rate : 1 565 Kbps
Width : 720 pixels
Height : 384 pixels
Display aspect ratio : 1.88:1
Frame rate : 23.976 fps
Color space : YUV
Chroma subsampling : 4:2:0
Bit depth : 8 bits
Scan type : Progressive
Compression mode : Lossy
Bits/(Pixel*Frame) : 0.236
Stream size : 1.16 GiB (80%)
Writing library : XviD 50
Audio #1
ID : 1
Format : AC-3
Format/Info : Audio Coding 3
Mode extension : CM (complete main)
Format settings, Endianness : Big
Codec ID : 2000
Duration : 1h 46mn
Bit rate mode : Constant
Bit rate : 384 Kbps
Channel(s) : 6 channels
Channel positions : Front: L C R, Side: L R, LFE
Sampling rate : 48.0 KHz
Bit depth : 16 bits
Compression mode : Lossy
Stream size : 292 MiB (20%)
Alignment : Split accross interleaves
Interleave, duration : 42 ms (1.00 video frame)
Interleave, preload duration : 500 ms
piratbit.pw



Скачать Развод по-американски через торрент http://i48.fastpic.ru/big/2013/0529/1b/34ce3f0a831ee74a3894610aca7d321b.jpg Скачать фильм Развод по-американски через торрент бесплантно в хорошем качестве Описание: Когда Брук и Гэри решили разойтись, все казалось простым и понятным. Не сошлись характерами. Такое бывает. И даже сплошь и рядом. ... 9.2 10 11
Info! Золотая раздача, скачанное не засчитывается.
Торрент: Зарегистрирован [2013-05-29 04:54] · скачан: 437 раз
Статус: √ проверено
Размер: 1.46 GB
Как cкачать? Как скачать Развод по-американски через торрент | UTorrent

% Раздел Тема Автор DL S | L
Фильмы 2006-2008 [ 746 MB ] Развод по-американски / The Break-Up [2006 Мело HDRip] DUB dexter lex Скачать
1 | 0

28-11-2019 20:33  

Отключить всю рекламу на сайте

    Дорогой пользователь! Огромная просьба, поблагодарите релизера, оцените раздачу и оставьте свои комментарий, если Вы скачали Развод по-американски через торрент бесплатно! Внесите свою лепту в развитие PiratBit!
    Комментировать посты могут только пользователи прошедшие не сложную регистрацию
    Показать сообщения:    

    Развод по-американски через торрент
    Скачать бесплатно Развод по-американски
    Развод по-американски скачать торрент
    Развод по-американски смотреть онлайн
    Cкачать фильм Развод по-американски бесплатно
    Развод по-американски скачать торрент в хорошем качестве
    Развод по-американски смотреть онлайн бесплатно в хорошем качестве


    Вы не можете начинать темы
    Вы не можете отвечать на сообщения
    Вы не можете редактировать свои сообщения
    Вы не можете удалять свои сообщения
    Вы не можете голосовать в опросах
    Вы не можете прикреплять файлы к сообщениям
    Вы можете скачивать файлы