1 сезон

1 сезон

iTunes

1

КиноПоиск HD

Кинопоиск HD

iTunes

13

1 сезон

RePack

30

Новинка

ВАЖНО

ИГРА 18+

pack

RePack

MK11
pack

Легкие деньги

RePack

jed

RePack

fifa19

RePack

RDR2

RePack

NEED FOR SPEED™ PAYBACK

4 сезон

9 сезон

Бесстыжие 9 сезон

Все сериалы

все сериалы на PB.wtf

RePack

FAR CRY 5
  
Magnet ссылка

Аппалуза / Appaloosa (Эд Харрис / Ed Harris) [2008, вестерн. драма, криминал, BDRip, Авторский одноголосный] piratbit.pw

Аппалуза через торрент piratbit.pw

Размер: 1.46 GB | Добавлен: 7 лет 10 мес. назад | Торрент скачан:56 раз
Скачать  

28-05-2013 20:11 Аппалуза Скачать торрент  

Аппалуза / Appaloosa«Чувствую, что нужно убить тебя».
Год выхода: 2008
Жанр: вестерн. драма, криминал
Страна: США
Студия: New Line Cinema, Axon Films, Groundswell Productions
Продолжительность: 01:55:25
Перевод: Авторский (одноголосный, закадровый) [Ю.Сербин]

Режиссер: Эд Харрис / Ed Harris

В ролях: Вигго Мортенсен, Рене Зеллвегер, Джереми Айронс, Эд Харрис, Лэнс Хенриксен, Рекс Линн, Ариадна Хил, Том Боуэр, Жирар Суон, Роберт Кнотт

Описание:
История двух друзей, которых нанимают для защиты жителей одного городка, терроризируемых беспощадным хозяином ранчо. Однако их планы рушит очаровательная вдова

Качество: BDRip
Формат: AVI
Видео кодек: XVID
Аудио кодек: AC3
Видео: 720x304 (2.37:1), 23,976 fps, XviD build 50, ~1413 kbps, 0.27 bit/pixel
Audio : 48 kHz, AC3 Dolby Digital, 3/2 (L,C,R,l,r) + LFE ch, ~384.00 kbps avg

Полное имя : E:MoviesAppaloosa.Serbin.avi
Формат : AVI
Формат/Информация : Audio Video Interleave
Размер файла : 1,46 Гбайт
Продолжительность : 1 ч. 55 м.
Общий поток : 1807 Кбит/сек
Название фильма : Appaloosa 2008
Программа кодирования : VirtualDubMod 1.5.10.2 (build 2542/release)

Видео
Идентификатор : 0
Формат : MPEG-4 Visual
Профиль формата : Advanced Simple@L5
Параметр BVOP формата : 1
Параметр QPel формата : Нет
Параметр GMC формата : Без точки перехода
Параметр матрицы формата : Выборочная
Идентификатор кодека : XVID
Идентификатор кодека/Подсказка : XviD
Продолжительность : 1 ч. 55 м.
Битрейт : 1414 Кбит/сек
Ширина : 720 пикс.
Высота : 304 пикс.
Соотношение сторон : 2,35:1
Частота кадров : 23,976 кадр/сек
Цветовое пространство : YUV
Подвыборка цветности : 4:2:0
Битовая глубина : 8 бит
Тип развёртки : Прогрессивная
Метод сжатия : С потерями
Бит/(Пиксели*Кадры) : 0.269
Размер потока : 1,14 Гбайт (78%)
Библиотека кодирования : XviD 1.2.1 (UTC 2008-12-04)

Аудио
Идентификатор : 1
Формат : AC-3
Формат/Информация : Audio Coding 3
Расширение режима : CM (complete main)
Идентификатор кодека : 2000
Продолжительность : 1 ч. 55 м.
Вид битрейта : Постоянный
Битрейт : 384 Кбит/сек
Каналы : 6 каналов
Расположение каналов : Front: L C R, Side: L R, LFE
Частота : 48,0 КГц
Битовая глубина : 16 бит
Метод сжатия : С потерями
Размер потока : 317 Мбайт (21%)
Выравнивание : Разделение по промежуткам
Продолжительность промежутка : 42 мс. (1,00 видеокадр)
Время предзагрузки промежутка : 500 ms
piratbit.pw



Скачать Аппалуза через торрент http://i46.fastpic.ru/big/2013/0421/d1/03708fb137f0e9ee278192ce3a53c0d1.png Скачать фильм Аппалуза через торрент бесплантно в хорошем качестве Описание: История двух друзей, которых нанимают для защиты жителей одного городка, терроризируемых беспощадным хозяином ранчо. Однако их ... 10 10 4
Info! Золотая раздача, скачанное не засчитывается.
Торрент: Зарегистрирован [2013-05-28 20:11] · скачан: 56 раз
Статус: √ проверено
Размер: 1.46 GB
Как cкачать? Как скачать Аппалуза через торрент | UTorrent

% Раздел Тема Автор DL S | L
Фильмы до 2000 г. [ 1.97 GB ] Аппалуза / The Appaloosa [1966 экранизация DVDRip-AVC ] от ExKinoRay dumbia Скачать
1 | 0
Фильмы 2006-2008 [ 2.18 GB ] Аппалуза / Appaloosa [2008 BDRip] кэп Скачать
1 | 0
Фильмы 2006-2008 [ 2.18 GB ] Аппалуза / Appaloosa [2008 BDRip-AVC] шурка Скачать
1 | 0

28-11-2019 20:33  

Отключить всю рекламу на сайте

    Дорогой пользователь! Огромная просьба, поблагодарите релизера, оцените раздачу и оставьте свои комментарий, если Вы скачали Аппалуза через торрент бесплатно! Внесите свою лепту в развитие PiratBit!
    Комментировать посты могут только пользователи прошедшие не сложную регистрацию
    Показать сообщения:    

    Аппалуза через торрент
    Скачать бесплатно Аппалуза
    Аппалуза скачать торрент
    Аппалуза смотреть онлайн
    Cкачать фильм Аппалуза бесплатно
    Аппалуза скачать торрент в хорошем качестве
    Аппалуза смотреть онлайн бесплатно в хорошем качестве


    Вы не можете начинать темы
    Вы не можете отвечать на сообщения
    Вы не можете редактировать свои сообщения
    Вы не можете удалять свои сообщения
    Вы не можете голосовать в опросах
    Вы не можете прикреплять файлы к сообщениям
    Вы можете скачивать файлы