1 сезон

1 сезон

iTunes

1

КиноПоиск HD

Кинопоиск HD

iTunes

13

1 сезон

RePack

30

Ultimate

ВАЖНО

ИГРА 18+

pack

RePack

MK11
pack

Легкие деньги

RePack

jed

RePack

fifa19

RePack

RDR2

RePack

NEED FOR SPEED™ PAYBACK

4 сезон

9 сезон

Бесстыжие 9 сезон

Все сериалы

все сериалы на PB.wtf

RePack

FAR CRY 5
  
Magnet ссылка

Счастливчик Гилмор / Happy Gilmore (Деннис Дуган / Dennis Dugan) [1996, мелодрама, комедия, спорт, BDRip, Авторский одноголосный] piratbit.pw

Счастливчик Гилмор через торрент piratbit.pw

Размер: 1.45 GB | Добавлен: 7 лет 10 мес. назад | Торрент скачан:72 раза
Скачать  

23-05-2013 20:10 Счастливчик Гилмор Скачать торрент  

Счастливчик Гилмор / Happy Gilmored

Год выпуска: 1996
Страна: США
Жанр: мелодрама, комедия, спорт
Продолжительность: 01:31:55
Перевод:
Авторский (Одноголосый закадровый) Павел Санаев
Субтитры: нет

Режиссер: Деннис Дуган / Dennis Dugan
В ролях: Адам Сэндлер, Кристофер МакДональд, Джули Боуэн, Фрэнсес Бэй, Карл Уезерс, Элан КовертРоберт Шмигель, Боб Баркер, Ричард Кил, Деннис Дуган и др.
Описание: Гилмор с детства обожал хоккей, но, кроме пушечного удара, способностей у него к этой игре «настоящих мужчин» не было. Случай дал ему в руки клюшку для гольфа, и удар его был самым мощным за всю историю этого лужаечного вида спорта, который он так презирал. Но на одном презрении далеко не уедешь, а вот за победу в гольф платят большие деньги. И тут за дело берется профессиональный тренер по гольфу, которому придется весьма нелегко с дегенеративным «счастливчиком» Гилмором…»

Качество: BDRip
Формат: AVI
Видео кодек: XviD
Аудио кодек: AC3
Видео: 704x384 (1.83:1), 23.976 fps, XviD MPEG-4 ~1805 kbps avg, 0.28 bit/pixel
Аудио: 48 kHz, AC3 Dolby Digital, 3/2 (L,C,R,l,r) + LFE ch, ~448 kbps

E:INTERNETSchastlivchik_Gilmor_1996_BDRip_Menen.avi
General
Complete name : E:INTERNETSchastlivchik_Gilmor_1996_BDRip_Menen.avi
Format : AVI
Format/Info : Audio Video Interleave
File size : 1.45 GiB
Duration : 1h 31mn
Overall bit rate : 2 263 Kbps
Movie name : Schastlivchik_Gilmor_1996_BDRip_Menen
Director : Menen
Writing application : VirtualDubMod 1.5.10.2 (build 2540/release)
Video #0
ID : 0
Format : MPEG-4 Visual
Format profile : Advanced Simple@L5
Format settings, BVOP : 1
Format settings, QPel : No
Format settings, GMC : No warppoints
Format settings, Matrix : Custom
Muxing mode : Packed bitstream
Codec ID : XVID
Codec ID/Hint : XviD
Duration : 1h 31mn
Bit rate : 1 806 Kbps
Width : 704 pixels
Height : 384 pixels
Display aspect ratio : 1.85:1
Frame rate : 23.976 fps
Color space : YUV
Chroma subsampling : 4:2:0
Bit depth : 8 bits
Scan type : Progressive
Compression mode : Lossy
Bits/(Pixel*Frame) : 0.279
Stream size : 1.16 GiB (80%)
Writing library : XviD 65
Audio #1
ID : 1
Format : AC-3
Format/Info : Audio Coding 3
Mode extension : CM (complete main)
Format settings, Endianness : Big
Codec ID : 2000
Duration : 1h 31mn
Bit rate mode : Constant
Bit rate : 448 Kbps
Channel(s) : 6 channels
Channel positions : Front: L C R, Side: L R, LFE
Sampling rate : 48.0 KHz
Bit depth : 16 bits
Compression mode : Lossy
Stream size : 294 MiB (20%)
Alignment : Split accross interleaves
Interleave, duration : 42 ms (1.00 video frame)
Interleave, preload duration : 500 ms

piratbit.pw



Скачать Счастливчик Гилмор через торрент http://i48.fastpic.ru/big/2012/1118/b4/d10f1a5f06cc5728fc59b77a35ed56b4.jpg Скачать фильм Счастливчик Гилмор через торрент бесплантно в хорошем качестве Описание: Гилмор с детства обожал хоккей, но, кроме пушечного удара, способностей у него к этой игре «настоящих мужчин» не было. Случай дал ... 7.8 10 4
Info! Золотая раздача, скачанное не засчитывается.
Торрент: Зарегистрирован [2013-05-23 20:10] · скачан: 72 раз
Статус: √ проверено
Размер: 1.45 GB
Как cкачать? Как скачать Счастливчик Гилмор через торрент | UTorrent

% Раздел Тема Автор DL S | L
? Оформление раздач (Кино, Видео и ТВ) [ 2.71 GB ] Счастливчик Гилмор / Happy Gilmore [1996 BDRip 720p / 60 FPS MVO ] alien2015 Скачать
2 | 0
Фильмы [HD 720p, 1080p] (Хороший звук DUB, MVO) [ 9.83 GB ] Счастливчик Гилмор / Happy Gilmore [1996 BDRip 1080p by msltel] MVO 3 x AVO msltel Скачать
1 | 0
Фильмы [HD 720p, 1080p] (Хороший звук DUB, MVO) [ 4.24 GB ] Счастливчик Гилмор / Happy Gilmore [1996 BDRip 720p by msltel] MVO 3 x AVO msltel Скачать
1 | 0
Фильмы до 2000 г. [ 2.96 GB ] Счастливчик Гилмор / Happy Gilmore [1996 BDRip AVC by msltel] MVO 3 x AVO msltel Скачать
2 | 0
Фильмы до 2000 г. [ 1.82 GB ] Счастливчик Гилмор / Happy Gilmore [1996 ... HDRip] Anonymous Скачать
1 | 0
Фильмы [HD 720p, 1080p] (Хороший звук DUB, MVO) [ 8.54 GB ] Счастливчик Гилмор / Happy Gilmore [1996 HD-DVDRip 1080p] djmaff Скачать
1 | 0
Классика зарубежного кино [ 744 MB ] Счастливчик Гилмор / Happy Gilmore [1996 ... DVDRip] Venxxx Скачать
1 | 0

28-11-2019 20:33  

Отключить всю рекламу на сайте

04-01-2017 14:24 Счастливчик Гилмор Скачать торрент  

Офигенный кинчик, перевод Павла Санаева выше всяких похвал!!!piratbit.pw



    Дорогой пользователь! Огромная просьба, поблагодарите релизера, оцените раздачу и оставьте свои комментарий, если Вы скачали Счастливчик Гилмор через торрент бесплатно! Внесите свою лепту в развитие PiratBit!
    Комментировать посты могут только пользователи прошедшие не сложную регистрацию
    Показать сообщения:    

    Счастливчик Гилмор через торрент
    Скачать бесплатно Счастливчик Гилмор
    Счастливчик Гилмор скачать торрент
    Счастливчик Гилмор смотреть онлайн
    Cкачать фильм Счастливчик Гилмор бесплатно
    Счастливчик Гилмор скачать торрент в хорошем качестве
    Счастливчик Гилмор смотреть онлайн бесплатно в хорошем качестве


    Вы не можете начинать темы
    Вы не можете отвечать на сообщения
    Вы не можете редактировать свои сообщения
    Вы не можете удалять свои сообщения
    Вы не можете голосовать в опросах
    Вы не можете прикреплять файлы к сообщениям
    Вы можете скачивать файлы