1 сезон

1 сезон

iTunes

1

КиноПоиск HD

Кинопоиск HD

iTunes

13

1 сезон

RePack

30

Deluxe

ВАЖНО

ИГРА 18+

pack

RePack

MK11
pack

Легкие деньги

RePack

jed

RePack

fifa19

RePack

RDR2

RePack

NEED FOR SPEED™ PAYBACK

4 сезон

9 сезон

Бесстыжие 9 сезон

Все сериалы

все сериалы на PB.wtf

RePack

FAR CRY 5
  
Magnet ссылка

Вакансия на жертву 2: Первый дубль / Vacancy 2: The First Cut (Эрик Бросс) [2008 г., триллер, ужасы, DVDRip, Профессиональный двухголосый] piratbit.pw

Вакансия на жертву 2: Первый дубль через торрент piratbit.pw

Размер: 746 MB | Добавлен: 7 лет 11 мес. назад | Торрент скачан:56 раз
Скачать  

21-05-2013 17:35 Вакансия на жертву 2: Первый дубль Скачать торрент  

Вакансия на жертву 2: Первый дубль / Vacancy 2: The First Cut
Год выпуска: 2008
Страна: США
Жанр: триллер, ужасы,
Продолжительность: 01:22:39
Перевод: Профессиональный двухголосый
Тип релиза: Пиратка
Субтитры: Нет
___________________________________
Режиссер: Эрик Бросс
Продюссер: Хэл Либерман, Брайан Пашал, Майкл Уильямс
Сценарий: Марк Л. Смит

В ролях: Агнес Брукнер, Дэвид Москоу, Скотт Дж. Андерсон, Эрджей Смит, Тревор Райт, Биу Биллингсли, Брайан Клагман, Хуанита Дженнингс, Нельсон Ли, Гвендолин Ео,
Бюджет: $5 000 000
Премьера в мире: 24 октября 2008



Описание: Владельцы и по совместительству служащие одного небольшого придорожного отеля, развлекаются тем, что установили скрытые камеры в комнатах. Ведь когда в мотель приезжают влюбленные парочки, за ними так забавно наблюдать, а потом можно и продать это видео для любителей подобной клубнички. Каждый развлекается как умеет. Вот и серийный-маньяк убийца заглянул на огонек, чтобы нескучно, в женской компании, провести вечер… Убийство девушки маньяком оказалось заснято на пленку, но хозяева отеля не торопятся отдавать улики полиции, они решают поставить дело на поток и заработать на этом. Трое друзей, решивших остановиться в этом отеле на ночь и не подозревают, что они попали в западню и окружающее их — декорации к жуткому сценарию убийства, где ребятам уготована роль жертв…

___________________________________
Качество: DVDRip
Формат: AVI
Видео кодек: XviD
Аудио кодек: MP3
Видео: 704x384 (1.83:1), 25 fps, XviD build 64 ~1126 kbps avg, 0.17 bit/pixel
Аудио#1: 48 kHz, MPEG Layer 3, 2/0 (L, R) ch, ~128 kbps avg
скриншот   скриншот   скриншот   скриншот   скриншот  

Video
ID : 0
Format : MPEG-4 Visual
Format profile : Advanced Simple@L5
Format settings, BVOP : 1
Format settings, QPel : No
Format settings, GMC : No warppoints
Format settings, Matrix : Custom
Codec ID : XVID
Codec ID/Hint : XviD
Duration : 1h 22mn
Bit rate : 1 126 Kbps
Width : 704 pixels
Height : 384 pixels
Display aspect ratio : 1.85:1
Frame rate : 25.000 fps
Color space : YUV
Chroma subsampling : 4:2:0
Bit depth : 8 bits
Scan type : Progressive
Compression mode : Lossy
Bits/(Pixel*Frame) : 0.167
Stream size : 665 MiB (89%)
Writing library : XviD 64

Audio
ID : 1
Format : MPEG Audio
Format version : Version 1
Format profile : Layer 3
Codec ID : 55
Codec ID/Hint : MP3
Duration : 1h 22mn
Bit rate mode : Constant
Bit rate : 128 Kbps
Channel(s) : 2 channels
Sampling rate : 48.0 KHz
Compression mode : Lossy
Stream size : 75.5 MiB (10%)
Alignment : Aligned on interleaves
Interleave, duration : 40 ms (1.00 video frame)
Interleave, preload duration : 504 ms
Writing library : L3.99r
Encoding settings : -m s -V 4 -q 0 -lowpass 17 -b 128

ПРИЯТНОГО ПРОСМОТРА!!!
™Оформление by fiskerpiratbit.pw



Скачать Вакансия на жертву 2: Первый дубль через торрент https://pic1.kartinco.top/images/21/mhyg5dof7h.jpg Скачать фильм Вакансия на жертву 2: Первый дубль через торрент бесплантно в хорошем качестве Описание: Владельцы и по совместительству служащие одного небольшого придорожного отеля, развлекаются тем, что установили скрытые камеры в ... 8.5 10 2
Info! Золотая раздача, скачанное не засчитывается.
Торрент: Зарегистрирован [2013-05-21 17:35] · скачан: 56 раз
Статус: √ проверено
Размер: 746 MB
Как cкачать? Как скачать Вакансия на жертву 2: Первый дубль через торрент | UTorrent



Последний раз редактировалось: fisker from DREAM Paragon (2013-05-21 18:06), всего редактировалось 1 раз

28-11-2019 20:33  

Отключить всю рекламу на сайте

21-05-2013 17:59 Вакансия на жертву 2: Первый дубль Скачать торрент  

fisker from DREAM Paragon
Максимальный размер постера 700 х 700. Исправляем.

2.1 Размер обложки не должен превышать 700*700 пикселей (небольшие отклонения от нормы возможны на усмотрение модератора).
И почитайте на будущее Правила раздела Фильмы. Как правильно оформить раздачу фильма piratbit.pw



    Дорогой пользователь! Огромная просьба, поблагодарите релизера, оцените раздачу и оставьте свои комментарий, если Вы скачали Вакансия на жертву 2: Первый дубль через торрент бесплатно! Внесите свою лепту в развитие PiratBit!
    Комментировать посты могут только пользователи прошедшие не сложную регистрацию
    Показать сообщения:    

    Вакансия на жертву 2: Первый дубль через торрент
    Скачать бесплатно Вакансия на жертву 2: Первый дубль
    Вакансия на жертву 2: Первый дубль скачать торрент
    Вакансия на жертву 2: Первый дубль смотреть онлайн
    Cкачать фильм Вакансия на жертву 2: Первый дубль бесплатно
    Вакансия на жертву 2: Первый дубль скачать торрент в хорошем качестве
    Вакансия на жертву 2: Первый дубль смотреть онлайн бесплатно в хорошем качестве


    Вы не можете начинать темы
    Вы не можете отвечать на сообщения
    Вы не можете редактировать свои сообщения
    Вы не можете удалять свои сообщения
    Вы не можете голосовать в опросах
    Вы не можете прикреплять файлы к сообщениям
    Вы можете скачивать файлы