1 сезон

1 сезон

iTunes

1

iTunes

Кинопоиск HD

iTunes

13

1 сезон

RePack

30

Deluxe

ВАЖНО

ИГРА 18+

pack

RePack

MK11
pack

Легкие деньги

RePack

jed

RePack

fifa19

RePack

RDR2

RePack

NEED FOR SPEED™ PAYBACK

4 сезон

9 сезон

Бесстыжие 9 сезон

Все сериалы

все сериалы на PB.wtf

RePack

FAR CRY 5
  
Magnet ссылка

Красавчик / Keinohrhasen (Тиль Швайгер) [2007 г., Kомедия, мелодрама, BDRip 720p, Профессиональный + Оригинал] piratbit.pw

Красавчик через торрент piratbit.pw

Размер: 3.64 GB | Добавлен: 7 лет 11 мес. назад | Торрент скачан:328 раз
Скачать  

17-05-2013 14:30 Красавчик Скачать торрент  


Красавчик / Keinohrhasen
Год выпуска: 2007
Страна: Германия
Жанр: Kомедия, мелодрама,
Продолжительность: 01:56:03
Перевод: Дубляж (Профессиональный) [Лицензия] + Оригинал [Немецкий]
Субтитры: Русские UTF-8 (full)

Режиссер: Тиль Швайгер

Бюджет: €4 500 000
Премьера в мире: 10 декабря 2007



В ролях: Тиль Швайгер, Владимир Кличко, Нора Чирнер, Маттиас Швайгхефер, Алвара Хёфельс, Юрген Фогель, Рик Каваниан, Армин Рохд, Вольфганг Штумпф, Барбара Рудник, Кристиан Трамиц,

Описание:
Журналист Людо, схлопотавший восемь месяцев тюрьмы, освобожден на испытательный срок при условии, что он обязательно пройдет курс трудотерапии. Ему предстоит отработать триста часов в местном детском саду. Как ухаживать за 8-летними оболтусами, Людо не очень представляет, но в группе работает его старая знакомая — еще в школе он изводил ее своими выходками. И вот теперь та сопливая девочка выросла, превратившись практически в супермодель. А что делать с моделями, Людо в курсе. Но у девушки свои планы на старого знакомого…

Качество: BDRip 720p | /Blu-Ray/1080p
Формат: MKV
Видео кодек: H.264
Аудио кодек: AC3
Видео: 1280x544/2,35:1/23.976 fps/3600 Kbps/0.216 Bits/(Pixel*Frame)
Аудио: 48 kHz, AC3 Dolby Digital, 3/2 (L,C,R,l,r) + LFE ch, ~ 448 kbps avg |RUS|
Аудио 2: 48 kHz, AC3 Dolby Digital, 3/2 (L,C,R,l,r) + LFE ch, ~ 448 kbps avg |GER|


Релиз группы: by Dean24




avs [info]: 1280x544p 1:1 @ 2500000/104271 fps (cfr)
x264 [info]: using SAR=1/1
x264 [info]: using cpu capabilities: MMX2 SSE2Fast SSSE3 Cache64
x264 [info]: profile High, level 4.1
x264 [info]: frame I:2232 Avg QP:17.11 size:109257
x264 [info]: frame P:32450 Avg QP:20.52 size: 35316
x264 [info]: frame B:132268 Avg QP:22.36 size: 13142
x264 [info]: consecutive B-frames: 2.0% 1.1% 2.8% 22.6% 7.8% 52.4% 2.3% 3.9% 1.0% 4.2%
x264 [info]: mb I I16..4: 8.0% 74.6% 17.4%
x264 [info]: mb P I16..4: 0.8% 8.8% 1.1% P16..4: 44.0% 23.0% 16.2% 1.2% 0.3% skip: 4.6%
x264 [info]: mb B I16..4: 0.0% 1.2% 0.1% B16..8: 42.8% 10.6% 3.0% direct: 6.2% skip:36.1% L0:44.8% L1:45.1% BI:10.1%
x264 [info]: 8x8 transform intra:82.3% inter:62.6%
x264 [info]: direct mvs spatial:97.5% temporal:2.5%
x264 [info]: coded y,uvDC,uvAC intra: 94.0% 76.1% 50.0% inter: 30.0% 14.6% 4.9%
x264 [info]: i16 v,h,dc,p: 33% 11% 12% 44%
x264 [info]: i8 v,h,dc,ddl,ddr,vr,hd,vl,hu: 10% 8% 8% 10% 14% 14% 13% 12% 12%
x264 [info]: i4 v,h,dc,ddl,ddr,vr,hd,vl,hu: 11% 8% 4% 9% 15% 15% 13% 12% 13%
x264 [info]: i8c dc,h,v,p: 41% 22% 21% 16%
x264 [info]: Weighted P-Frames: Y:1.6% UV:0.4%
x264 [info]: ref P L0: 42.4% 10.1% 18.1% 7.1% 5.8% 4.3% 3.8% 2.1% 1.8% 1.6% 1.5% 1.4% 0.1% 0.0%
x264 [info]: ref B L0: 72.2% 10.9% 5.8% 3.1% 2.2% 1.8% 1.6% 0.9% 0.8% 0.5% 0.2%
x264 [info]: ref B L1: 92.3% 7.7%
x264 [info]: kb/s:3593.85

x264 [total]: encoded 166950 frames, 1.60 fps, 3593.85 kb/s
_________________________________________

Общее:
Уникальный идентификатор: 178288618519359583122091032421396340378 (0x8621238FEEBCEF18B5BBF152A7675E9A)
Полное имя: D:Для сайтаRip'skrasavchik_2007_BDRip_720p_ot_DHT-Movies.mkv
Формат: Matroska
Версия формата: Version 2
Размер файла: 3,64 Гбайт
Продолжительность: 1 ч. 56 м.
Общий поток: 4492 Кбит/сек
Дата кодирования: UTC 2013-04-12 16:40:10
Программа кодирования: mkvmerge v5.6.0 ('Kenya Kane') built on Jun 29 2012 15:01:44
Библиотека кодирования: libebml v1.2.3 + libmatroska v1.3.0

Видео:
Идентификатор: 1
Формат: AVC
Формат/Информация: Advanced Video Codec
Профиль формата: High@L4.1
Параметр CABAC формата: Да
Параметр ReFrames формата: 12 кадров
Идентификатор кодека: V_MPEG4/ISO/AVC
Продолжительность: 1 ч. 56 м.
Битрейт: 3600 Кбит/сек
Ширина: 1280 пикселей
Высота: 544 пикселя
Соотношение сторон: 2,35:1
Режим частоты кадров: Постоянный
Частота кадров: 23,976 кадра/сек
Цветовое пространство: YUV
Субдискретизация насыщенности: 4:2:0
Битовая глубина: 8 бит
Тип развёртки: Прогрессивная
Бит/(Пиксели*Кадры): 0.216
Размер потока: 2,84 Гбайт (78%)
Библиотека кодирования: x264 core 125 r2200 999b753
Настройки программы: cabac=1 / ref=12 / deblock=1:-2:-1 / analyse=0x3:0x133 / me=umh / subme=10 / psy=1 / psy_rd=1.05:0.10 / mixed_ref=1 / me_range=24 / chroma_me=1 / trellis=2 / 8x8dct=1 / cqm=0 / deadzone=21,11 / fast_pskip=0 / chroma_qp_offset=-3 / threads=3 / lookahead_threads=1 / sliced_threads=0 / nr=0 / decimate=0 / interlaced=0 / bluray_compat=0 / constrained_intra=0 / bframes=9 / b_pyramid=2 / b_adapt=2 / b_bias=0 / direct=3 / weightb=1 / open_gop=0 / weightp=2 / keyint=240 / keyint_min=24 / scenecut=40 / intra_refresh=0 / rc_lookahead=60 / rc=2pass / mbtree=1 / bitrate=3600 / ratetol=1.0 / qcomp=0.65 / qpmin=0 / qpmax=69 / qpstep=4 / cplxblur=20.0 / qblur=0.5 / ip_ratio=1.40 / aq=1:1.00
Default: Да
Forced: Нет

Аудио #1:
Идентификатор: 2
Формат: AC-3
Формат/Информация: Audio Coding 3
Расширение режима: CM (complete main)
Параметр Endianness формата: Big
Идентификатор кодека: A_AC3
Продолжительность: 1 ч. 56 м.
Вид битрейта: Постоянный
Битрейт: 448 Кбит/сек
Каналы: 6 каналов
Расположение каналов: Front: L C R, Side: L R, LFE
Частота: 48,0 КГц
Битовая глубина: 16 бит
Метод сжатия: С потерями
Размер потока: 372 Мбайт (10%)
Default: Да
Forced: Нет

Аудио #2:
Идентификатор: 3
Формат: AC-3
Формат/Информация: Audio Coding 3
Расширение режима: CM (complete main)
Параметр Endianness формата: Big
Идентификатор кодека: A_AC3
Продолжительность: 1 ч. 56 м.
Вид битрейта: Постоянный
Битрейт: 448 Кбит/сек
Каналы: 6 каналов
Расположение каналов: Front: L C R, Side: L R, LFE
Частота: 48,0 КГц
Битовая глубина: 16 бит
Метод сжатия: С потерями
Размер потока: 372 Мбайт (10%)
Default: Нет
Forced: Нет

Текст:
Идентификатор: 4
Формат: UTF-8
Идентификатор кодека: S_TEXT/UTF8
Идентификатор кодека/Информация: UTF-8 Plain Text
Default: Да
Forced: Нет

piratbit.pw



Скачать Красавчик через торрент http://i33.fastpic.ru/big/2013/0413/63/10ce85dd348a20a550702b14f4625a63.png Скачать фильм Красавчик через торрент бесплантно в хорошем качестве Описание:Журналист Людо, схлопотавший восемь месяцев тюрьмы, освобожден на испытательный срок при условии, что он обязательно пройдет курс ... 10 10 8
Info! Золотая раздача, скачанное не засчитывается.
Торрент: Зарегистрирован [2013-05-17 14:30] · скачан: 328 раз
Статус: √ проверено
Размер: 3.64 GB
Как cкачать? Как скачать Красавчик через торрент | UTorrent

% Раздел Тема Автор DL S | L
Фильмы [HD 720p, 1080p] (Хороший звук DUB, MVO) [ 11.86 GB ] Красавчик / Keinohrhasen [2007 BDRip 1080p by msltel] DUB msltel Скачать
1 | 0
Фильмы [HD 720p, 1080p] (Хороший звук DUB, MVO) [ 4.37 GB ] Красавчик / Keinohrhasen [2007 BDRip 720p by msltel] DUB msltel Скачать
1 | 0
Сборники на DVD и Сиквелы [DVDrip, WEB-DLRip, HDrip, BDRip] [ 1.46 GB ] Красавчик / Keinohrhasen​ [2007 2010 г HDRip DVDRip] Maks_zm Скачать
1 | 0
Фильмы [HD 720p, 1080p] (Хороший звук DUB, MVO) [ 5.59 GB ] Красавчик / Rabbit Without Ears / Keinohrhasen [2007 BDRip / 720p] Go[L]dy Скачать
1 | 0
Фильмы 2006-2008 [ 2 GB ] Красавчик / Keinohrhasen [2007 HDRip-AVC] Axwell Скачать
1 | 0

28-11-2019 20:33  

Отключить всю рекламу на сайте

17-05-2013 15:17 Красавчик Скачать торрент  

Dean24

Ссылки на трекер, следующий раз убирайте !piratbit.pw



    Дорогой пользователь! Огромная просьба, поблагодарите релизера, оцените раздачу и оставьте свои комментарий, если Вы скачали Красавчик через торрент бесплатно! Внесите свою лепту в развитие PiratBit!
    Комментировать посты могут только пользователи прошедшие не сложную регистрацию
    Показать сообщения:    

    Красавчик через торрент
    Скачать бесплатно Красавчик
    Красавчик скачать торрент
    Красавчик смотреть онлайн
    Cкачать фильм Красавчик бесплатно
    Красавчик скачать торрент в хорошем качестве
    Красавчик смотреть онлайн бесплатно в хорошем качестве


    Вы не можете начинать темы
    Вы не можете отвечать на сообщения
    Вы не можете редактировать свои сообщения
    Вы не можете удалять свои сообщения
    Вы не можете голосовать в опросах
    Вы не можете прикреплять файлы к сообщениям
    Вы можете скачивать файлы