новый адрес
Ссылка на приватное зеркало всего за 1$. Внимание количество ограничено!!!

iTunes

1+1

iTunes

мы

WEB-DL

1

iTunes

Чернобыль

iTunes

Ральф против интернета

Лицензия

ПШазам

Лицензия

Оно 2

Лицензия

30
pack

Вам бонус

ВАЖНО

!!Акция!!

Alien_RageХит недели

RePack

Resident Evil 21

ИГРА 18+

pack

RePack

jed

!!Акция!!

Alien_Rage

RePack

fifa19

RePack

Assassins Creed: Odyssey

RePack

NEED FOR SPEED™ PAYBACK

3 сезон

9 сезон

Бесстыжие 9 сезон

Все сериалы

все сериалы на PB.wtf

RePack

FAR CRY 5
Ребята, катастрофически не хватает 1900р. для оплаты серверов за Октябрь (всвязи с блокировками трафик упал в 3 раза), 1-2р., выручайте.
  

Выживший / Supravietuitorul (Серджиу Николаеску) [2007 г., криминал, DVDRip, VO] piratbit.pw

Выживший через торрент piratbit.pw

Размер: 1.51 GB | Добавлен: 6 лет 6 мес. назад | Торрент скачан:41 раз
Скачать  

11-05-2013 13:47 Выживший Скачать торрент  

Выживший / Supravietuitorul
Год выпуска: 2007
Страна: Румыния
Жанр: криминал,
Продолжительность: 01:45:38
Перевод: Любительский одноголосый

Режиссер: Серджиу Николаеску
Продюссер: Андрей Бончя, Калин Фуртунеску, Михай Тодерюк
Сценарий: Серджиу Николаеску

Мировой рейтинг IMDB 5.90 (890)



В ролях: Серджиу Николаеску, Petr Falc, Владимир Гайтан, Кристиан Мотиу, Ион Ритиу, Lucian Viziru, Илеана Лазарюк, Джордж Михаица, Тудор Михайта, Тудор Мунтяну,

Описание: В тюрьме начальник развлекается тем, что заставляет заключенных играть в «русскую рулетку». Один из заключенных выживает, когда ему выпадает единственный шанс: в патроннике нагана остается свободным только одно место. Через много лет бывший смертник находит своего мучителя, превратившего убийство из нагана в шоу-бизнес.

Качество: DVDRip
Формат: AVI
Видео кодек: XviD
Аудио кодек: MP3
Видео: 720 x 400 (16:9), 25 fps, XviD, 1851 kbps, 0.257 bit/pixel
Аудио#1: 48 kHz, MPEG Layer 3, 2 ch, ~192.00 kbps avg



скриншот   скриншот   скриншот   скриншот   скриншот   скриншот  
Общее
Полное имя : E:Supravietuitorul.2007.avi
Формат : AVI
Формат/Информация : Audio Video Interleave
Размер файла : 1,51 Гбайт
Продолжительность : 1 ч. 45 м.
Общий поток : 2052 Кбит/сек
Программа кодирования : VirtualDubModRus 1.5.10.2 (build 2542/release)
Библиотека кодирования : VirtualDubMod build 2542/release

Видео
Идентификатор : 0
Формат : MPEG-4 Visual
Профиль формата : Advanced Simple@L5
Параметр BVOP формата : 2
Параметр QPel формата : Нет
Параметр GMC формата : Без точки перехода
Параметр матрицы формата : Default (H.263)
Режим смешивания : Сжатый битовый поток
Идентификатор кодека : XVID
Идентификатор кодека/Подсказка : XviD
Продолжительность : 1 ч. 45 м.
Битрейт : 1851 Кбит/сек
Ширина : 720 пикс.
Высота : 400 пикс.
Соотношение сторон : 16:9
Частота кадров : 25,000 кадр/сек
Цветовое пространство : YUV
Подвыборка цветности : 4:2:0
Битовая глубина : 8 бит
Тип развёртки : Прогрессивная
Метод сжатия : С потерями
Бит/(Пиксели*Кадры) : 0.257
Размер потока : 1,37 Гбайт (90%)
Библиотека кодирования : XviD 61

Аудио
Идентификатор : 1
Формат : MPEG Audio
Версия формата : Version 1
Профиль формата : Layer 3
Режим : Joint stereo
Идентификатор кодека : 55
Идентификатор кодека/Подсказка : MP3
Продолжительность : 1 ч. 45 м.
Вид битрейта : Постоянный
Битрейт : 192 Кбит/сек
Канал(ы) : 2 канала(ов)
Частота : 48,0 КГц
Метод сжатия : С потерями
Размер потока : 145 Мбайт (9%)
Выравнивание : Соединение по промежуткам
Продолжительность промежутка : 40 мс. (1,00 видеокадр)
Время предзагрузки промежутка : 504 ms


Выживший скачать торрент


piratbit.pw



Скачать Выживший через торрент http://i46.fastpic.ru/big/2013/0511/b6/831e395aeafc63649f65dcac6e0418b6.jpg Скачать фильм Выживший через торрент бесплантно в хорошем качестве Описание: В тюрьме начальник развлекается тем, что заставляет заключенных играть в «русскую рулетку». Один из заключенных выживает, когда ... 10 10 4
Info! Золотая раздача, скачанное не засчитывается.
Торрент: Зарегистрирован [2013-05-11 13:47] · скачан: 41 раз
Статус: T временная
Размер: 1.51 GB
Как cкачать? Как скачать Выживший через торрент | qTorrent

28-11-2019 20:33  

Отключить всю рекламу на сайте

26-05-2013 15:58 Выживший Скачать торрент  

Сссука!!!!!!!!!!!piratbit.pw



    Дорогой пользователь! Огромная просьба, поблагодарите релизера, оцените раздачу и оставьте свои комментарий, если Вы скачали Выживший через торрент бесплатно! Внесите свою лепту в развитие PiratBit!
    Комментировать посты могут только пользователи прошедшие не сложную регистрацию
    Показать сообщения:    

    Выживший через торрент
    Скачать бесплатно Выживший
    Выживший скачать торрент
    Выживший смотреть онлайн
    Cкачать фильм Выживший бесплатно
    Выживший скачать торрент в хорошем качестве
    Выживший смотреть онлайн бесплатно в хорошем качестве


    Вы не можете начинать темы
    Вы не можете отвечать на сообщения
    Вы не можете редактировать свои сообщения
    Вы не можете удалять свои сообщения
    Вы не можете голосовать в опросах
    Вы не можете прикреплять файлы к сообщениям
    Вы можете скачивать файлы