1 сезон

1 сезон

iTunes

1

КиноПоиск HD

Кинопоиск HD

iTunes

13

1 сезон

RePack

30

Новинка

ВАЖНО

ИГРА 18+

pack

RePack

MK11
pack

Легкие деньги

RePack

jed

RePack

fifa19

RePack

RDR2

RePack

NEED FOR SPEED™ PAYBACK

4 сезон

9 сезон

Бесстыжие 9 сезон

Все сериалы

все сериалы на PB.wtf

RePack

FAR CRY 5
  
Magnet ссылка

Красная жара / RedHeat (Уолтер Хилл / Walter Hill) [1988 г., боевик, триллер, комедия, криминал, BDRip 1080p, Авторский (Гоблин)] piratbit.pw

Красная жара через торрент piratbit.pw

Размер: 1.78 GB | Добавлен: 7 лет 11 мес. назад | Торрент скачан:90 раз
Скачать  

30-04-2013 18:21 Красная жара Скачать торрент  

Красная жара / RedHeat
Год выпуска: 1988
Страна: США
Жанр: боевик, триллер, комедия, криминал,
Продолжительность: 01:44:21
Перевод: Авторский (Гоблин)
Субтитры: русскоязычные (R5, Гоблин), англоязычные (полные)

Режиссер: Уолтер Хилл / Walter Hill
Продюссер: Гордон Кэрролл / Gordon Carroll, Уолтер Хилл / Walter Hill, Марио Кассар / Mario Kassar, Эндрю Дж. Вайна / Andrew G. Vajna, Мэй Вудс / Mae Woods
Сценарий: Уолтер Хилл / Walter Hill, Гарри Клайнер / Harry Kleiner, Трой Кеннеди-Мартин / Troy Kennedy-Martin

Премьера в мире: 14 июня 1988

В ролях: Арнольд Шварценеггер (Capt. Ivan Danko, ), Джеймс Белуши (Det. Sgt. Art Ridzik), Питер Бойл (Cmdr. Lou Donnelly), Эд О`Росс (Viktor 'Rosta' Rostavili), Лоренс Фишбёрн (Lt. Charlie Stobbs), Джина Гершон (Catherine 'Cat' Manzetti), Ричард Брайт (Det. Sgt. Gallagher), Дж.В. Смит (Salim), Брент Дженнингс (Abdul Elijah), Гретхен Палмер (Hooker), Прюитт Тэйлор Винс (Night Clerk), Майкл Дж. Хэгерти (Pat Nunn),

Описание: В доперестроечные времена торговля наркотиками была из ряда вон выходящим преступлением. На борьбу с грузинским мафиози, который используя все связи США, пытается пристрастить к кокаину советских граждан, выходит гроза преступного мира милиционер Иван Данко. Этот парень не любит шутить, и доказательством серьезности его намерений служат большие мускулы и пистолет. Чтобы арестовать бандита, Иван направляется в Чикаго — рассадник капиталистической заразы. Там его помощником становится болтливый полицейский. Вместе они обезвреживают мафиози, разрушив при этом полгорода и расстреляв пару десятков негодяев.

Качество: BDRip
Формат: MPEG-4
Видео кодек: XviD
Аудио кодек: AC3
Видео: 688x384 (1.79:1), 23.976 fps, XviD build 56 ~1539 kbps avg, 0.24 bit/pixel
Аудио#1: русский 48 kHz, AC3 Dolby Digital, 3/2 (L,C,R,l,r) + LFE ch, ~448.00 kbps avg > |Пучков|
Аудио#2: русский 48 kHz, AC3 Dolby Digital, 3/2 (L,C,R,l,r) + LFE ch, ~448.00 kbps avg > |Гаврилов| > отдельно
Релиз от: 666gtr666










Общее
Полное имя : D:Red.Heat.1988.2.AVORed.Heat.1988.ac3
Формат : AC-3
Формат/Информация : Audio Coding 3
Размер файла : 334 Мбайт
Продолжительность : 1 ч. 44 м.
Режим общего битрейта : Постоянный
Общий поток : 448 Кбит/сек

Аудио
Формат : AC-3
Формат/Информация : Audio Coding 3
Расширение режима : CM (complete main)
Параметр Endianness формата : Big
Продолжительность : 1 ч. 44 м.
Вид битрейта : Постоянный
Битрейт : 448 Кбит/сек
Каналы : 6 каналов
Расположение каналов : Front: L C R, Side: L R, LFE
Частота : 48,0 КГц
Битовая глубина : 16 бит
Метод сжатия : С потерями
Размер потока : 334 Мбайт (100%)

Общее
Полное имя : D:Red.Heat.1988.2.AVORed.Heat.1988.avi
Формат : AVI
Формат/Информация : Audio Video Interleave
Размер файла : 1,46 Гбайт
Продолжительность : 1 ч. 44 м.
Общий поток : 1997 Кбит/сек
Режиссёр : zim2001
Программа кодирования : VirtualDubMod 1.5.10.2 (build 2540/release)

Видео
Идентификатор : 0
Формат : MPEG-4 Visual
Профиль формата : Advanced Simple@L5
Параметр BVOP формата : 2
Параметр QPel формата : Нет
Параметр GMC формата : Без точки перехода
Параметр матрицы формата : Выборочная
Идентификатор кодека : XVID
Идентификатор кодека/Подсказка : XviD
Продолжительность : 1 ч. 44 м.
Битрейт : 1540 Кбит/сек
Ширина : 688 пикселей
Высота : 384 пикселя
Соотношение сторон : 16:9
Частота кадров : 23,976 кадра/сек
Цветовое пространство : YUV
Субдискретизация насыщенности : 4:2:0
Битовая глубина : 8 бит
Тип развёртки : Прогрессивная
Метод сжатия : С потерями
Бит/(Пиксели*Кадры) : 0.243
Размер потока : 1,12 Гбайт (77%)
Библиотека кодирования : XviD 56

Аудио
Идентификатор : 1
Формат : AC-3
Формат/Информация : Audio Coding 3
Расширение режима : CM (complete main)
Параметр Endianness формата : Big
Идентификатор кодека : 2000
Продолжительность : 1 ч. 44 м.
Вид битрейта : Постоянный
Битрейт : 448 Кбит/сек
Каналы : 6 каналов
Расположение каналов : Front: L C R, Side: L R, LFE
Частота : 48,0 КГц
Битовая глубина : 16 бит
Метод сжатия : С потерями
Размер потока : 334 Мбайт (22%)
Выравнивание : Разделение по промежуткам
Продолжительность промежутка : 42 мс. (1,00 видеокадр)
Время предзагрузки промежутка : 500 мс.

Общее
Полное имя : D:Red.Heat.1988.2.AVORed.Heat.1988.srt
Формат : SubRip
Размер файла : 70,2 Кбайт

Текст
Формат : SubRip
Метод сжатия : Без потерь

Общее
Полное имя : D:Red.Heat.1988.2.AVORed.Heat.1988_eng.srt
Формат : SubRip
Размер файла : 80,1 Кбайт

Текст
Формат : SubRip
Метод сжатия : Без потерь

Общее
Полное имя : D:Red.Heat.1988.2.AVORed.Heat.1988_rus.srt
Формат : SubRip
Размер файла : 82,5 Кбайт

Текст
Формат : SubRip
Метод сжатия : Без потерь


Красная жара скачать торрент


piratbit.pw



Скачать Красная жара через торрент https://pic.kartinco.top/images/2/s1nyl7xszr.jpg Скачать фильм Красная жара через торрент бесплантно в хорошем качестве Описание: В доперестроечные времена торговля наркотиками была из ряда вон выходящим преступлением. На борьбу с грузинским мафиози, который ... 9 10 19
Info! Золотая раздача, скачанное не засчитывается.
Торрент: Зарегистрирован [2013-04-30 18:21] · скачан: 90 раз
Статус: √ проверено
Размер: 1.78 GB
Как cкачать? Как скачать Красная жара через торрент | UTorrent



Последний раз редактировалось: 666gtr666 (2013-05-01 16:19), всего редактировалось 4 раз(а)

28-11-2019 20:33  

Отключить всю рекламу на сайте

30-04-2013 21:38 Красная жара Скачать торрент  

Один из лучших фильмов для поклонников Арни. Спасибо!piratbit.pw



30-04-2013 22:44 Красная жара Скачать торрент  

666gtr666
1. Это не BDRip 1080p!
2. Максимальный размер постера 700 на 700 пикселей

Для изменения статуса раздачи, после исправления со ссылкой на раздачуpiratbit.pw



01-05-2013 02:41 Красная жара Скачать торрент  

"Пацелуй миня в джёпу", - как сейчас помню))
Спасибо за раздачу.piratbit.pw



01-05-2013 04:53 Красная жара Скачать торрент  

Кокаинум! piratbit.pw



01-05-2013 05:47 Красная жара Скачать торрент  

капытализм, хулиганы piratbit.pw



13-03-2018 17:49 Красная жара Скачать торрент  

скорости плииззззpiratbit.pw



20-05-2019 12:47 Красная жара Скачать торрент  

lotmai писал(а):

Один из лучших фильмов для поклонников Арни. Спасибо!

Да нееpiratbit.pw



    Дорогой пользователь! Огромная просьба, поблагодарите релизера, оцените раздачу и оставьте свои комментарий, если Вы скачали Красная жара через торрент бесплатно! Внесите свою лепту в развитие PiratBit!
    Комментировать посты могут только пользователи прошедшие не сложную регистрацию
    Показать сообщения:    

    Красная жара через торрент
    Скачать бесплатно Красная жара
    Красная жара скачать торрент
    Красная жара смотреть онлайн
    Cкачать фильм Красная жара бесплатно
    Красная жара скачать торрент в хорошем качестве
    Красная жара смотреть онлайн бесплатно в хорошем качестве


    Вы не можете начинать темы
    Вы не можете отвечать на сообщения
    Вы не можете редактировать свои сообщения
    Вы не можете удалять свои сообщения
    Вы не можете голосовать в опросах
    Вы не можете прикреплять файлы к сообщениям
    Вы можете скачивать файлы