1 сезон

1 сезон

iTunes

1

КиноПоиск HD

Кинопоиск HD

iTunes

13

1 сезон

RePack

30

Ultimate

ВАЖНО

ИГРА 18+

pack

RePack

MK11
pack

Легкие деньги

RePack

jed

RePack

fifa19

RePack

RDR2

RePack

NEED FOR SPEED™ PAYBACK

4 сезон

9 сезон

Бесстыжие 9 сезон

Все сериалы

все сериалы на PB.wtf

RePack

FAR CRY 5
  
Magnet ссылка

Зловещие мертвецы / The Evil Dead (Сэм Рэйми / Sam Raimi) [1981, ужасы, HDRip] AVO piratbit.pw

Зловещие мертвецы через торрент piratbit.pw

Размер: 744 MB | Добавлен: 7 лет 11 мес. назад | Торрент скачан:85 раз
Скачать  

26-04-2013 01:06 Зловещие мертвецы Скачать торрент  

Зловещие мертвецы / The Evil Dead
Страна: США
Жанр: ужасы
Год выпуска: 1981
Продолжительность: 01:25:26
Перевод: Авторский (Гаврилов Андрей)
Субтитры: нет

Режиссер: Сэм Рэйми / Sam Raimi

В ролях: Брюс Кэмпбелл (Ashley «Ash» J. Williams), Эллен Сэндвайсс (Cheryl), Ричард ДеМэннинкор (Scott), Бетси Бейкер (Linda), Тереза Тилли (Shelly), Филип А. Гиллис (Fake Shemp), Дороти Тейперт (Fake Shemp), Шерил Гаттридж (Fake Shemp), Барбара Кэри (Fake Shemp), Дэвид Хортон (Fake Shemp), Уэндал Томас (Fake Shemp), Дон Лонг (Fake Shemp)

Описание:
Молодые люди снимают на выходные загородный дом. Находится он в непролазной глуши, выглядит мрачно, а кругом - ни души. Аренда стоит копейки, но не потому, что он того и гляди развалится...
Раньше здесь жил археолог, после которого в подвале остались различные мистические артефакты. Например, книга мертвых, предметы неизвестных магических культов и магнитофон с записью заклинания на непонятном языке. Ребята запись прослушали... С наступлением темноты им предстоит встретиться с духами, которых они разбудили!

Качество: HDRip
Формат: AVI
Видео кодек: XviD
Аудио кодек: MP3
Видео: 656x352 (1.86:1), 23.976 fps, XviD build 50 ~1081 kbps avg, 0.20 bit/pixel
Аудио: 48 kHz, MPEG Layer 3, 2 ch, ~128.00 kbps avg
Раздача от:
D:The.Evil.Dead.1981.HDRip.[YTN] by dexter lex.avi
General
Complete name : D:The.Evil.Dead.1981.HDRip.[YTN] by dexter lex.avi
Format : AVI
Format/Info : Audio Video Interleave
File size : 744 MiB
Duration : 1h 25mn
Overall bit rate : 1 218 Kbps
Writing application : VirtualDubMod 1.5.10.3 | www.virtualdub-fr.org || (build 2550/release)
Writing library : VirtualDubMod build 2550/release
Video #0
ID : 0
Format : MPEG-4 Visual
Format profile : Advanced Simple@L5
Format settings, BVOP : 1
Format settings, QPel : No
Format settings, GMC : No warppoints
Format settings, Matrix : Custom
Codec ID : XVID
Codec ID/Hint : XviD
Duration : 1h 25mn
Bit rate : 1 081 Kbps
Width : 656 pixels
Height : 352 pixels
Display aspect ratio : 1.86:1
Frame rate : 23.976 fps
Color space : YUV
Chroma subsampling : 4:2:0
Bit depth : 8 bits
Scan type : Progressive
Compression mode : Lossy
Bits/(Pixel*Frame) : 0.195
Stream size : 660 MiB (89%)
Writing library : XviD 1.2.1 (UTC 2008-12-04)
Audio #1
ID : 1
Format : MPEG Audio
Format version : Version 1
Format profile : Layer 3
Codec ID : 55
Codec ID/Hint : MP3
Duration : 1h 25mn
Bit rate mode : Constant
Bit rate : 128 Kbps
Channel(s) : 2 channels
Sampling rate : 48.0 KHz
Compression mode : Lossy
Stream size : 78.2 MiB (11%)
Alignment : Aligned on interleaves
Interleave, duration : 42 ms (1.00 video frame)
Interleave, preload duration : 504 ms
Writing library : LAME3.99r
Encoding settings : -m s -V 4 -q 2 -lowpass 17 -b 128
http://multi-up.com/858785
piratbit.pw



Скачать Зловещие мертвецы через торрент http://i46.fastpic.ru/big/2013/0407/19/04a2e8d62afe0dff40d90db524c5f619.jpg Скачать фильм Зловещие мертвецы через торрент бесплантно в хорошем качестве Описание:Молодые люди снимают на выходные загородный дом. Находится он в непролазной глуши, выглядит мрачно, а кругом - ни души. Аренда ... 9.7 10 7
Info! Золотая раздача, скачанное не засчитывается.
Торрент: Зарегистрирован [2013-04-26 01:06] · скачан: 85 раз
Статус: √ проверено
Размер: 744 MB
Как cкачать? Как скачать Зловещие мертвецы через торрент | UTorrent

% Раздел Тема Автор DL S | L
Фильмы (Blu-ray, BD-Remux, HDDVD) [ 21.6 GB ] Зловещие мертвецы / The Evil Dead [1981 BDRemux 1080p] [Remastered] [Open Matte] MVO + 2xDVO + 6xAVO sheker187 Скачать
1 | 0
Ultra HD (UHD: 2K, 4K, 8K) — видео сверхвысокой чёткости [ 47.48 GB ] Зловещие мертвецы / The Evil Dead [1981 UHD BDRemux 2160p] MVO + 2xDVO + 5xAVO sheker187 Скачать
1 | 0
Фильмы с авторской озвучкой [ 2.19 GB ] Зловещие мертвецы / The Evil Dead [1981 BDRip] [Remastered Open Matte] 3x[AVO] killermax2013 Скачать
1 | 0

28-11-2019 20:33  

Отключить всю рекламу на сайте

    Дорогой пользователь! Огромная просьба, поблагодарите релизера, оцените раздачу и оставьте свои комментарий, если Вы скачали Зловещие мертвецы через торрент бесплатно! Внесите свою лепту в развитие PiratBit!
    Комментировать посты могут только пользователи прошедшие не сложную регистрацию
    Показать сообщения:    

    Зловещие мертвецы через торрент
    Скачать бесплатно Зловещие мертвецы
    Зловещие мертвецы скачать торрент
    Зловещие мертвецы смотреть онлайн
    Cкачать фильм Зловещие мертвецы бесплатно
    Зловещие мертвецы скачать торрент в хорошем качестве
    Зловещие мертвецы смотреть онлайн бесплатно в хорошем качестве


    Вы не можете начинать темы
    Вы не можете отвечать на сообщения
    Вы не можете редактировать свои сообщения
    Вы не можете удалять свои сообщения
    Вы не можете голосовать в опросах
    Вы не можете прикреплять файлы к сообщениям
    Вы можете скачивать файлы