новый адрес
Ссылка на приватное зеркало всего за 1$. Внимание количество ограничено!!!

iTunes

1+1

iTunes

мы

WEB-DL

1

iTunes

Чернобыль

iTunes

Ральф против интернета

Лицензия

ПШазам

Лицензия

Оно 2

Лицензия

30
pack

Вам бонус

ВАЖНО

!!Акция!!

Alien_RageХит недели

RePack

Resident Evil 21

ИГРА 18+

pack

RePack

jed

!!Акция!!

Alien_Rage

RePack

fifa19

RePack

Assassins Creed: Odyssey

RePack

NEED FOR SPEED™ PAYBACK

3 сезон

9 сезон

Бесстыжие 9 сезон

Все сериалы

все сериалы на PB.wtf

RePack

FAR CRY 5
Ребята, катастрофически не хватает 1900р. для оплаты серверов за Октябрь (всвязи с блокировками трафик упал в 3 раза), 1-2р., выручайте.
  

Темный поток / Dark Feed(Майкл Расмуссен / Michael Rasmussen, Шон Расмуссен / Shawn Rasmussen) [2013, США , ужасы, WEB-DLRip] VO [den904] piratbit.pw

Темный поток через торрент piratbit.pw

Размер: 1.46 GB | Добавлен: 6 лет 7 мес. назад | Торрент скачан:295 раз
Скачать  

12-04-2013 17:29 Темный поток Скачать торрент  

Темный поток
Dark Feed


  • Страна: США / Rasmussen Brothers Productions
  • Жанр: ужасы
  • Год выпуска: 2013
  • Продолжительность: 01:25:57
  • Перевод: Любительское (одноголосое) [den904] - перевод на русский язык [vanek009] - работа со звуком [g00ba]
  • Субтитры: нет
  • Режиссер: Майкл Расмуссен / Michael Rasmussen, Шон Расмуссен / Shawn Rasmussen
  • В ролях: Эвалена Мари (Pierced Girl), Дэйна Казинс (Marissa), Тори Наджент (Beth), Ребекка Уитехёрст (Rachel), Майкл Скотт Аллен (Darrell), Andy Rudick (Chris), Джейсон Бобьен (Andrei), Джессика Лорен Напье (Jessica), Джонатан Томсон (Harry), Ивэн Сэндерсон (Jurgen), Hardy Winburn (Chuck), Бри Элрод (M.G.)
  • Описание:
    Съемочная группа отправляется в заброшенную психиатрическую больницу с темным прошлым, чтобы снять низкобюджетный фильм ужасов. Они и не подозревали, насколько дорого в итоге им придётся заплатить…
  • Рейтинг
    MPAA: R - Лицам до 17 лет обязательно присутствие взрослого

  • Качество видео: WEB-DLRip [WEB-DL]
  • Формат видео: AVI
  • Видео кодек: XviD
  • Аудио кодек: AC3
  • Видео: XviD; 720x400 (16:9); 1975 Kbps; 23,976 fps; 0,286 bpp
  • Аудио: AC3; 448 Kbps; CBR; 6 ch; 16 bit,48 kHz

  • Сценарий: Майкл Расмуссен / Michael Rasmussen, Шон Расмуссен / Shawn Rasmussen
    Продюсер: Майкл Расмуссен / Michael Rasmussen, Шон Расмуссен / Shawn Rasmussen, Гленн Купер / Glenn Cooper, Роджер Данчик / Roger Danchik, Jonathan Huberman
    Оператор: Monday Sunnlinn





    General
    Complete name : D:ТорентыDark.Feed.2013.WEB-DLRip.avi
    Format : AVI
    Format/Info : Audio Video Interleave
    File size : 1.46 GiB
    Duration : 1h 25mn
    Overall bit rate : 2 433 Kbps
    Writing application : VirtualDubMod 1.5.10.3 | www.virtualdub-fr.org || (build 2550/release)
    Writing library : VirtualDubMod build 2550/release

    Video
    ID : 0
    Format : MPEG-4 Visual
    Format profile : Advanced Simple@L5
    Format settings, BVOP : 2
    Format settings, QPel : No
    Format settings, GMC : No warppoints
    Format settings, Matrix : Default (MPEG)
    Codec ID : XVID
    Codec ID/Hint : XviD
    Duration : 1h 25mn
    Bit rate : 1 976 Kbps
    Width : 720 pixels
    Height : 400 pixels
    Display aspect ratio : 16:9
    Frame rate : 23.976 fps
    Color space : YUV
    Chroma subsampling : 4:2:0
    Bit depth : 8 bits
    Scan type : Progressive
    Compression mode : Lossy
    Bits/(Pixel*Frame) : 0.286
    Stream size : 1.19 GiB (81%)
    Writing library : XviD 1.2.1 (UTC 2008-12-04)

    Audio
    ID : 1
    Format : AC-3
    Format/Info : Audio Coding 3
    Mode extension : CM (complete main)
    Codec ID : 2000
    Duration : 1h 25mn
    Bit rate mode : Constant
    Bit rate : 448 Kbps
    Channel(s) : 6 channels
    Channel positions : Front: L C R, Side: L R, LFE
    Sampling rate : 48.0 KHz
    Bit depth : 16 bits
    Compression mode : Lossy
    Stream size : 275 MiB (18%)
    Alignment : Split accross interleaves
    Interleave, duration : 42 ms (1.00 video frame)
    Interleave, preload duration : 500 ms

    © Оформление& Постер by Vetalpiratbit.pw



  • Скачать Темный поток через торрент http://i46.fastpic.ru/big/2013/0412/63/12a1997e32a1274fcf04f151b54d5c63.png Скачать фильм Темный поток через торрент бесплантно в хорошем качестве Описание: Съемочная группа отправляется в заброшенную психиатрическую больницу с темным прошлым, чтобы снять низкобюджетный фильм ужасов. ... 7.7 10 15
    Info! Золотая раздача, скачанное не засчитывается.
    Торрент: Зарегистрирован [2013-04-12 17:29] · скачан: 295 раз
    Статус: √ проверено
    Размер: 1.46 GB
    Как cкачать? Как скачать Темный поток через торрент | qTorrent

    28-11-2019 20:33  

    Отключить всю рекламу на сайте

    12-04-2013 18:32 Темный поток Скачать торрент  

    Они раскрыли весь смысл фильма в описании :lol:piratbit.pw



    12-04-2013 19:54 Темный поток Скачать торрент  

    судя по описанию, это "фильм о фильме"?piratbit.pw



    12-04-2013 20:35 Темный поток Скачать торрент  

    эээ, искатели могил?piratbit.pw



    12-04-2013 22:40 Темный поток Скачать торрент  

    Как я понял у них получилось снять низкобуджетный фильм ))piratbit.pw



    12-04-2013 23:11 Темный поток Скачать торрент  

    автобиография съемочной бригады данной картиныpiratbit.pw



    13-04-2013 05:47 Темный поток Скачать торрент  

    Жалкое подобие Искателей Могил!!! Такого калосборника давно не видал.piratbit.pw



    13-04-2013 17:16 Темный поток Скачать торрент  

    фильм получился даже незкобюджетнее чем они задумывали :wacko:piratbit.pw



    13-04-2013 18:31 Темный поток Скачать торрент  

    Щас в моде стало делать шляпу по нормальным фильмам, пытаясь навариться...piratbit.pw



      Дорогой пользователь! Огромная просьба, поблагодарите релизера, оцените раздачу и оставьте свои комментарий, если Вы скачали Темный поток через торрент бесплатно! Внесите свою лепту в развитие PiratBit!
      Комментировать посты могут только пользователи прошедшие не сложную регистрацию
      Показать сообщения:    

      Темный поток через торрент
      Скачать бесплатно Темный поток
      Темный поток скачать торрент
      Темный поток смотреть онлайн
      Cкачать фильм Темный поток бесплатно
      Темный поток скачать торрент в хорошем качестве
      Темный поток смотреть онлайн бесплатно в хорошем качестве


      Вы не можете начинать темы
      Вы не можете отвечать на сообщения
      Вы не можете редактировать свои сообщения
      Вы не можете удалять свои сообщения
      Вы не можете голосовать в опросах
      Вы не можете прикреплять файлы к сообщениям
      Вы можете скачивать файлы