новый адрес
Ссылка на приватное зеркало всего за 1$. Внимание количество ограничено!!!

iTunes

1+1

iTunes

мы

WEB-DL

1

iTunes

Чернобыль

iTunes

Ральф против интернета

Лицензия

ПШазам

Лицензия

Оно 2

Лицензия

30
pack

Вам бонус

ВАЖНО

!!Акция!!

Alien_RageХит недели

RePack

Resident Evil 21

ИГРА 18+

pack

RePack

jed

!!Акция!!

Alien_Rage

RePack

fifa19

RePack

Assassins Creed: Odyssey

RePack

NEED FOR SPEED™ PAYBACK

3 сезон

9 сезон

Бесстыжие 9 сезон

Все сериалы

все сериалы на PB.wtf

RePack

FAR CRY 5
Ребята, катастрофически не хватает 1900р. для оплаты серверов за Октябрь (всвязи с блокировками трафик упал в 3 раза), 1-2р., выручайте.
  

Жуткие 13 / 13 Eerie (Лоуелл Дин) [2013 г., ужасы, WEB-DLRip-AVC, DVO] piratbit.pw

Жуткие 13 через торрент piratbit.pw

Размер: 1.59 GB | Добавлен: 6 лет 8 мес. назад | Торрент скачан:597 раз
Скачать  

08-04-2013 04:03 Жуткие 13 Скачать торрент  

Жуткие 13 / 13 Eerie
Год выпуска: 2013
Страна: Канада
Жанр: ужасы,
Продолжительность: 01:23:54
Перевод: Любительский двухголосый [DeadSno & den904]
Субтитры: Английские

Режиссер: Лоуелл Дин
Продюссер: Дон Кармоди, Кевин ДеУолт, Марк Монтаг
Сценарий: Кристиан Пьерс Бетли

Мировой рейтинг IMDB


В ролях: Кэтрин Изабель, Брендан Фер, Брендан Флетчер, Ник Моран, Джесси Мосс, Кристи Паттерсон, Майкл Эйснер, Линдон Брэй, Майкл Шэнкс, Шеннон Джардин,

Описание: Группа из шести выпускников университета, будущих судмедэкспертов, высаживаются в ходе университетской практики на некий отдаленный островок. Однако, прибывшие не в курсе, что данный островок использовался правительством, как некое экспериментальное поле для нелегальных биологических тестов над пожизненными заключенными. Как обычно «что-то пошло не так», и оставленные на смерть заключенные, ее, смерти, так и не дождались, или дождались, но частично...

Качество: WEB-DLRip-AVC
Формат: MKV
Видео кодек: H.264
Аудио кодек: AC3
Видео: 1024 x 552 (1.855) at 23.976 fps AVC at 2000 Кбит/сек
Аудио#1: AC-3 at 192 Кбит/сек 2 канала, 48,0 КГц RUS
Аудио#2: AC-3 at 384 Кбит/сек 6 каналов, 48,0 КГц ENG
скриншот   скриншот   скриншот   скриншот   скриншот   скриншот   скриншот   скриншот  

Общее
Уникальный идентификатор : 200654520512281776134615650555069163178 (0x96F4A7AB02134BC8AD0F23432D0366AA)
Полное имя : D:ФильмыZhutkie.13.2013.L1.WEB-DLRip.AVC.=Sудья=.mkv
Формат : Matroska
Версия формата : Version 4 / Version 2
Размер файла : 1,59 Гбайт
Продолжительность : 1 ч. 26 м.
Общий поток : 2622 Кбит/сек
Дата кодирования : UTC 2010-02-22 21:41:31
Программа кодирования : mkvmerge v5.9.0 ('On The Loose') built on Dec 9 2012 15:37:01
Библиотека кодирования : libebml v1.3.0 + libmatroska v1.4.0

Видео
Идентификатор : 1
Формат : AVC
Формат/Информация : Advanced Video Codec
Профиль формата : Baseline@L4.1
Параметр CABAC формата : Нет
Параметр ReFrames формата : 1 кадр
Режим смешивания : Header stripping
Идентификатор кодека : V_MPEG4/ISO/AVC
Продолжительность : 1 ч. 26 м.
Битрейт : 2000 Кбит/сек
Ширина : 1024 пикселя
Высота : 552 пикселя
Соотношение сторон : 1,855
Частота кадров : 23,976 кадра/сек
Цветовое пространство : YUV
Субдискретизация насыщенности : 4:2:0
Битовая глубина : 8 бит
Тип развёртки : Прогрессивная
Бит/(Пиксели*Кадры) : 0.148
Размер потока : 1,21 Гбайт (76%)
Библиотека кодирования : x264 core 125 r2200bm 999b753
Настройки программы : cabac=0 / ref=1 / deblock=0:0:0 / analyse=0:0 / me=dia / subme=0 / psy=1 / psy_rd=1.00:0.00 / mixed_ref=0 / me_range=16 / chroma_me=1 / trellis=0 / 8x8dct=0 / cqm=0 / deadzone=21,11 / fast_pskip=1 / chroma_qp_offset=0 / threads=3 / lookahead_threads=1 / sliced_threads=0 / nr=0 / decimate=1 / interlaced=0 / bluray_compat=0 / constrained_intra=0 / bframes=0 / weightp=0 / keyint=250 / keyint_min=23 / scenecut=0 / intra_refresh=0 / rc=abr / mbtree=0 / bitrate=2000 / ratetol=1.0 / qcomp=0.60 / qpmin=0 / qpmax=69 / qpstep=4 / ip_ratio=1.40 / aq=0
Язык : English
Default : Да
Forced : Нет

Аудио #1
Идентификатор : 2
Формат : AC-3
Формат/Информация : Audio Coding 3
Расширение режима : CM (complete main)
Режим смешивания : Header stripping
Идентификатор кодека : A_AC3
Продолжительность : 1 ч. 26 м.
Вид битрейта : Постоянный
Битрейт : 192 Кбит/сек
Каналы : 2 канала
Расположение каналов : Front: L R
Частота : 48,0 КГц
Битовая глубина : 16 бит
Метод сжатия : С потерями
Размер потока : 119 Мбайт (7%)
Язык : Russian
Default : Да
Forced : Нет

Аудио #2
Идентификатор : 3
Формат : AC-3
Формат/Информация : Audio Coding 3
Расширение режима : CM (complete main)
Режим смешивания : Header stripping
Идентификатор кодека : A_AC3
Продолжительность : 1 ч. 26 м.
Вид битрейта : Постоянный
Битрейт : 384 Кбит/сек
Каналы : 6 каналов
Расположение каналов : Front: L C R, Side: L R, LFE
Частота : 48,0 КГц
Битовая глубина : 16 бит
Метод сжатия : С потерями
Размер потока : 238 Мбайт (15%)
Язык : English
Default : Нет
Forced : Нет

Текст
Идентификатор : 4
Формат : UTF-8
Идентификатор кодека : S_TEXT/UTF8
Идентификатор кодека/Информация : UTF-8 Plain Text
Язык : English
Default : Нет
Forced : Нет


Жуткие 13 скачать торрент


piratbit.pw



Скачать Жуткие 13 через торрент http://pic.kartinco.top/images/2/k3x7ftaynd.jpg Скачать фильм Жуткие 13 через торрент бесплантно в хорошем качестве Описание: Группа из шести выпускников университета, будущих судмедэкспертов, высаживаются в ходе университетской практики на некий ... 9.1 10 30
Info! Золотая раздача, скачанное не засчитывается.
Торрент: Зарегистрирован [2013-04-08 04:03] · скачан: 597 раз
Статус: √ проверено
Размер: 1.59 GB
Как cкачать? Как скачать Жуткие 13 через торрент | qTorrent

% Раздел Тема Автор DL S | L
Фильмы 2013 (Звук TS, Cam, VO, DVO) [ 1.37 GB ] Жуткие 13 / 13 Eerie [2013 WEB-DLRip DVO] Яйцеслав Скачать
1 | 0

28-11-2019 20:33  

Отключить всю рекламу на сайте

08-04-2013 08:04 Жуткие 13 Скачать торрент  

жуткие 01:23:54 (продолжытельность фильма) боюс настолько жуткие что и смотреть невозможно)piratbit.pw



09-04-2013 07:26 Жуткие 13 Скачать торрент  

что-то мне подсказывает что смотреть не стоит)piratbit.pw



10-04-2013 11:41 Жуткие 13 Скачать торрент  

могу роскозать в крации у одних нет денег (снявшихся в этом фильме студентов) так вот поехали они на какойта якобы остров (ну чтоб поправить свои финансы Американскими рублями ) для учёбы и снялись в этом ужасном фильме который если покозать в наших детских яслях я думаю они усутся от смеха :jest3:piratbit.pw



10-04-2013 12:51 Жуткие 13 Скачать торрент  

Гаврил.68 писал(а):

могу роскозать в крации у одних нет денег (снявшихся в этом фильме студентов) так вот поехали они на какойта якобы остров (ну чтоб поправить свои финансы Американскими рублями ) для учёбы и снялись в этом ужасном фильме который если покозать в наших детских яслях я думаю они усутся от смеха :jest3:

Они хоть снялись для учёбы, а Вам не мешало-бы подучить русский язык, за орфографию КОЛ!piratbit.pw



10-04-2013 14:19 Жуткие 13 Скачать торрент  

54 спасибки, ни одного нормального комента по фильму piratbit.pw



10-04-2013 21:14 Жуткие 13 Скачать торрент  

Када я вижу в описании фильма слова: "Группа выпускников... (ученых, туристов, студентов... и т.д., и т.п....)" сразу качать охоту отбивает напрочь! :-)piratbit.pw



12-04-2013 03:27 Жуткие 13 Скачать торрент  

Они хоть снялись для учёбы, а Вам не мешало-бы подучить русский язык, за орфографию КОЛ!

как хочю так и пешуpiratbit.pw



12-04-2013 18:36 Жуткие 13 Скачать торрент  

И здесь тоже "группа...". Я как только вижу в описании фильма, что ГРУППА каких-нить ученых, студентов, или прочих неудачников куда-то там отправилась и с ними начали приключаться какие-то неудачи - даже не скачиваю... Можно сразу прогнозировать - ПОЛНОЕ ФУФЛО, а не фильм... Уровень TV3piratbit.pw



20-04-2013 11:09 Жуткие 13 Скачать торрент  

Sудья писал(а):

Гаврил.68 писал(а):

могу роскозать в крации у одних нет денег (снявшихся в этом фильме студентов) так вот поехали они на какойта якобы остров (ну чтоб поправить свои финансы Американскими рублями ) для учёбы и снялись в этом ужасном фильме который если покозать в наших детских яслях я думаю они усутся от смеха :jest3:

Они хоть снялись для учёбы, а Вам не мешало-бы подучить русский язык, за орфографию КОЛ!

:ad:piratbit.pw



20-04-2013 17:37 Жуткие 13 Скачать торрент  

А почему они жуткие ?! всего лишь болезные уроды.. Фильм надо было снимать про то как группа гумманитариев поехала на остров убивать из жалости болезных уродов piratbit.pw



01-05-2013 10:25 Жуткие 13 Скачать торрент  

Гаврил.68 писал(а):

Они хоть снялись для учёбы, а Вам не мешало-бы подучить русский язык, за орфографию КОЛ!

как хочю так и пешу

Кстати можно научиться пользоваться кнопкой "цитата". Хотя думаю тут уже не поможет.
З.Ы. Кстати сейчас во всех браузерах есть проверка орфографии. Говорят помогает.piratbit.pw



    Дорогой пользователь! Огромная просьба, поблагодарите релизера, оцените раздачу и оставьте свои комментарий, если Вы скачали Жуткие 13 через торрент бесплатно! Внесите свою лепту в развитие PiratBit!
    Комментировать посты могут только пользователи прошедшие не сложную регистрацию
    Показать сообщения:    

    Жуткие 13 через торрент
    Скачать бесплатно Жуткие 13
    Жуткие 13 скачать торрент
    Жуткие 13 смотреть онлайн
    Cкачать фильм Жуткие 13 бесплатно
    Жуткие 13 скачать торрент в хорошем качестве
    Жуткие 13 смотреть онлайн бесплатно в хорошем качестве


    Вы не можете начинать темы
    Вы не можете отвечать на сообщения
    Вы не можете редактировать свои сообщения
    Вы не можете удалять свои сообщения
    Вы не можете голосовать в опросах
    Вы не можете прикреплять файлы к сообщениям
    Вы можете скачивать файлы