MEGA NEWS Получи личный уникальный адрес сайта и защити себя от блокировок. Внимание количество ограничено!!!

iTunes

1+1

iTunes

мы

iTunes

1

iTunes

Чернобыль

iTunes

Ральф против интернета

Лицензия

ПШазам

Лицензия

Игра престолов

Лицензия

30
pack

ВАЖНО

!!Акция!!

Alien_RageХит недели

RePack

Resident Evil 21

ИГРА 18+

pack

RePack

Metro:Exodus

!!Акция!!

Alien_Rage

RePack

fifa19

RePack

Assassins Creed: Odyssey

RePack

NEED FOR SPEED™ PAYBACK

3 сезон

9 сезон

Бесстыжие 9 сезон

Все сериалы

все сериалы на PB.wtf

RePack

FAR CRY 5
Ребята, катастрофически не хватает 1900р. для оплаты серверов за АВГУСТ (всвязи с блокировками трафик упал в 3 раза), 1-2р., выручайте.
  

Большая прогулка / La Grande Vadrouille (Жерар Ури / Gerard Oury) [1966, Франция, Великобритания, комедия, HDRip] Dub Советский piratbit.pw

Большая прогулка через торрент piratbit.pw

Размер: 1.46 GB | Добавлен: 6 лет 6 мес. назад | Торрент скачан:486 раз
Скачать  

04-04-2013 11:47 Большая прогулка Скачать торрент  

Большая прогулка / La Grande Vadrouille

Страна: Франция, Великобритания
Жанр: комедия
Год выпуска: 1966
Продолжительность: 02:03:47

Перевод: Профессиональный (дублированный) Доп. инфо о переводе Советский
Cубтитры: нет
Режиссер: Жерар Ури / Gerard Oury

В ролях: Бурвиль, Луи де Фюнес, Клаудио Брук, Андреа Паризи, Колетт Броссе, Майк Маршалл, Мари Марке, Пьер Бертен, Бенно Штерценбах, Мари Дюбуа

Описание: Небо над Парижем, 1942 год. Английский бомбардировщик, выполняющий важное задание, подбит немцами. Летчики покидают горящую машину, договариваясь встретиться через некоторое время в турецкой бане. Один из них приземляется на крыше дома, где работает парижский маляр Огюстен Буве. Другой падает на крышу Гранд-Опера и прячется вместе с парашютом в апартаментах главного дирижера. А командир экипажа сэр Реджинальд «приводняется» в зоопарке — в пруду с тюленями. И как только англичане попадают в Париж, начинаются совершенно невероятные приключения…

Качество видео: HDRip
Формат видео: AVI
Видео кодек: XviD
Аудио кодек: AC3
Видео: MPEG-4 Visual at 1491 Кбит/сек; 720 x 304 (2.368) at 23.976 fps
Аудио: AC-3 at 192 Кбит/сек; 2 канала, 48,0 КГц
D:Луи Де Фюнес КоллецияLa Grande vadrouille.1966.HDRip.XviD.1400MB. rip by [Assassin's Creed].avi
General
Complete name : D:Луи Де Фюнес КоллецияLa Grande vadrouille.1966.HDRip.XviD.1400MB. rip by [Assassin's Creed].avi
Format : AVI
Format/Info : Audio Video Interleave
File size : 1.46 GiB
Duration : 2h 3mn
Overall bit rate : 1 692 Kbps
Writing application : VirtualDubMod 1.5.10.2 (build 2540/release)
Writing library : VirtualDubMod build 2540/release
Video #0
ID : 0
Format : MPEG-4 Visual
Format profile : Advanced Simple@L5
Format settings, BVOP : 1
Format settings, QPel : No
Format settings, GMC : No warppoints
Format settings, Matrix : Default (MPEG)
Codec ID : XVID
Codec ID/Hint : XviD
Duration : 2h 3mn
Bit rate : 1 491 Kbps
Width : 720 pixels
Height : 304 pixels
Display aspect ratio : 2.35:1
Frame rate : 23.976 fps
Color space : YUV
Chroma subsampling : 4:2:0
Bit depth : 8 bits
Scan type : Progressive
Compression mode : Lossy
Bits/(Pixel*Frame) : 0.284
Stream size : 1.29 GiB (88%)
Writing library : XviD 1.2.1 (UTC 2008-12-04)
Audio #1
ID : 1
Format : AC-3
Format/Info : Audio Coding 3
Mode extension : CM (complete main)
Format settings, Endianness : Big
Codec ID : 2000
Duration : 2h 3mn
Bit rate mode : Constant
Bit rate : 192 Kbps
Channel(s) : 2 channels
Channel positions : Front: L R
Sampling rate : 48.0 KHz
Bit depth : 16 bits
Compression mode : Lossy
Stream size : 170 MiB (11%)
Alignment : Split accross interleaves
Interleave, duration : 42 ms (1.00 video frame)
Interleave, preload duration : 500 ms
[url=https://piratbit.top/goo.php?url=https://piratbit.top/goo.php?url=http://imageban.ru/show/2012/04/15/f684eb2dc0c63d680bd52f3f4619f232/jpg]
piratbit.pw



Скачать Большая прогулка через торрент http://i34.fastpic.ru/big/2012/0415/93/f30b99510be568e5642fdd55973fdc93.png Скачать фильм Большая прогулка через торрент бесплантно в хорошем качестве Описание: Небо над Парижем, 1942 год. Английский бомбардировщик, выполняющий важное задание, подбит немцами. Летчики покидают горящую ... 9.9 10 13
Info! Золотая раздача, скачанное не засчитывается.
Торрент: Зарегистрирован [2013-04-04 11:47] · скачан: 486 раз
Статус: √ проверено
Размер: 1.46 GB
Как cкачать? Как скачать Большая прогулка через торрент | qTorrent



Последний раз редактировалось: dexter lex (2013-04-04 13:48), всего редактировалось 1 раз


>> Регистрируемся здесь <<






Отзывы и комментарии о схеме читаем и пишем здесь: ---> Отзывы и комментарии о схеме

Новые благодарочки в телеграм довольных пользователей:
скриншот   скриншот   скриншот   скриншот   скриншот

04-04-2013 13:02 Большая прогулка Скачать торрент  

Видео и Аудио Кодек добавьтеpiratbit.pw



04-04-2013 13:49 Большая прогулка Скачать торрент  

-=EnJoy=-
Добавил,все забываю.piratbit.pw



    Дорогой пользователь! Огромная просьба, поблагодарите релизера, оцените раздачу и оставьте свои комментарий, если Вы скачали Большая прогулка через торрент бесплатно! Внесите свою лепту в развитие PiratBit!
    Комментировать посты могут только пользователи прошедшие не сложную регистрацию
    Показать сообщения:    

    Большая прогулка через торрент
    Скачать бесплатно Большая прогулка
    Большая прогулка скачать торрент
    Большая прогулка смотреть онлайн
    Cкачать фильм Большая прогулка бесплатно
    Большая прогулка скачать торрент в хорошем качестве
    Большая прогулка смотреть онлайн бесплатно в хорошем качестве


    Вы не можете начинать темы
    Вы не можете отвечать на сообщения
    Вы не можете редактировать свои сообщения
    Вы не можете удалять свои сообщения
    Вы не можете голосовать в опросах
    Вы не можете прикреплять файлы к сообщениям
    Вы можете скачивать файлы