1 сезон

3 сезон

iTunes

1

iTunes

DUB Netflix

iTunes

13

1 сезон

RePack

30

Deluxe

pack

Легкие деньги

ВАЖНО

ИГРА 18+

pack

RePack

MK11

RePack

jed

RePack

fifa19

RePack

RDR2

RePack

NEED FOR SPEED™ PAYBACK

4 сезон

9 сезон

Бесстыжие 9 сезон

Все сериалы

все сериалы на PB.wtf

RePack

FAR CRY 5

Anonymous, доброй ночи, мы не успеваем до 1 числа собрать деньги на оплату серверов, помогите нам пожалуйста в это трудное время. В качестве благодарности мы отключим Вам всю рекламу на сайте (укажите свой ник в строку Ваше имя)!

×
  
Magnet ссылка

Львы для ягнят / Lions for Lambs (Роберт Редфорд) [2007 г., триллер, драма, военный, BDRip, Дубляж, лицензия] piratbit.pw

Львы для ягнят через торрент piratbit.pw

Размер: 2.05 GB | Добавлен: 8 лет 2 мес. назад | Торрент скачан:121 раз
Скачать  

27-03-2013 12:55 Львы для ягнят Скачать торрент  

Львы для ягнят / Lions for Lambs
«За что ты готов постоять? За что ты готов бороться? Во имя чего ты живешь? Во имя чего готов умереть?»
Год выпуска: 2007
Страна: США
Жанр: триллер, драма, военный,
Продолжительность: 01:31:15
Перевод: Дубляж, Лицензия
Тип релиза: Лицензия
Субтитры: Есть (отдельным файлом)
Язык субтитров:
Russian
English

Режиссер: Роберт Редфорд
Продюссер: Мэттью Майкл Карнахан, Трэйси Фалько, Эндрю Хауптман
Сценарий: Мэттью Майкл Карнахан

Бюджет: $35 000 000
Сборы в мире: $63 212 012
Премьера в мире: 22 октября 2007

Рейтинг MPAA: Детям до 17 лет обязательно присутствие родителей




В ролях: Роберт Редфорд, Мэрил Стрип, Том Круз, Майкл Пенья, Эндрю Гарфилд, Питер Берг, Кевин Данн, Дерек Люк, Ларри Бейтс, Кристофер Мэй...

Описание: В одно время в этом мире разворачивается несколько историй:
1) Сенатор с Капитолийского холма защищает свою позицию в отношении кризиса американской кампании в Афганистане
от прессинга назойливого журналиста, сделавшего себе имя на этой войне...
2) Профессор, преподающий политологию, старается убедить подающего хорошие надежды студента не бросать учебу,
приводя в пример двух бывших студентов, ушедших в армию...
3) Совершенно случайно эти два студента сейчас находятся в Афганистане под огнем талибов...
:
• Сценарист Мэтью Майкл Карнахан — родной брат режиссёра Джо Карнахана — также написал сценарий к фильму «Королевство», который вышел в прокат почти одновременно со «Львами для ягнят».
• В интервью журналу «Variety» Том Круз признался, что согласился сыграть в фильме, весь бюджет которого меньше, чем его обычный гонорар, из большого уважения к Роберту Рэдфорду.
Качество: BDRip
Формат: AVI
Видео кодек: XviD
Аудио кодек: AC3
Видео: 720x304, 23.976 fps, XviD build 50 ~2288 kbps avg, 0.44 bit/pixel
Аудио#1: 48 kHz, AC3 Dolby Digital, 3/2 (L,C,R,l,r) + LFE ch, ~448 kbps Russian (дублированный)
Аудио#2: 48 kHz, AC3 Dolby Digital, 3/2 (L,C,R,l,r) + LFE ch, ~448 kbps English (оригинал)
Львы_для_Ягнят.2007.BDRip.avi
General
Complete name : Львы_для_Ягнят.2007.BDRip.avi
Format : AVI
Format/Info : Audio Video Interleave
Format profile : OpenDML
File size : 2.05 GiB
Duration : 1h 31mn
Overall bit rate : 3 203 Kbps
Writing application : VirtualDubModRus 1.5.10.2 (build 2542/release)
Writing library : VirtualDubMod build 2542/release
Video #0
ID : 0
Format : MPEG-4 Visual
Format profile : Advanced Simple@L5
Format settings, BVOP : 2
Format settings, QPel : No
Format settings, GMC : No warppoints
Format settings, Matrix : Custom
Codec ID : XVID
Codec ID/Hint : XviD
Duration : 1h 31mn
Bit rate : 2 289 Kbps
Width : 720 pixels
Height : 304 pixels
Display aspect ratio : 2.35:1
Frame rate : 23.976 fps
Color space : YUV
Chroma subsampling : 4:2:0
Bit depth : 8 bits
Scan type : Progressive
Compression mode : Lossy
Bits/(Pixel*Frame) : 0.436
Stream size : 1.47 GiB (71%)
Writing library : XviD 1.2.1 (UTC 2008-12-04)
Audio #1
ID : 1
Format : AC-3
Format/Info : Audio Coding 3
Mode extension : CM (complete main)
Format settings, Endianness : Big
Codec ID : 2000
Duration : 1h 31mn
Bit rate mode : Constant
Bit rate : 448 Kbps
Channel(s) : 6 channels
Channel positions : Front: L C R, Side: L R, LFE
Sampling rate : 48.0 KHz
Bit depth : 16 bits
Compression mode : Lossy
Stream size : 294 MiB (14%)
Alignment : Split accross interleaves
Interleave, duration : 42 ms (1.00 video frame)
Interleave, preload duration : 500 ms
Audio #2
ID : 2
Format : AC-3
Format/Info : Audio Coding 3
Mode extension : CM (complete main)
Format settings, Endianness : Big
Codec ID : 2000
Duration : 1h 31mn
Bit rate mode : Constant
Bit rate : 448 Kbps
Channel(s) : 6 channels
Channel positions : Front: L C R, Side: L R, LFE
Sampling rate : 48.0 KHz
Bit depth : 16 bits
Compression mode : Lossy
Stream size : 294 MiB (14%)
Alignment : Split accross interleaves
Interleave, duration : 42 ms (1.00 video frame)
Interleave, preload duration : 500 ms


Релиз от:


Львы для ягнят скачать торрент


piratbit.pw



Скачать Львы для ягнят через торрент http://i.imgur.com/PJKaIZa.jpg Скачать фильм Львы для ягнят через торрент бесплантно в хорошем качестве Описание: В одно время в этом мире разворачивается несколько историй: 1) Сенатор с Капитолийского холма защищает свою позицию в отношении ... 9.3 10 9
Info! Золотая раздача, скачанное не засчитывается.
Торрент: Зарегистрирован [2013-03-27 12:55] · скачан: 121 раз
Статус: √ проверено
Размер: 2.05 GB
Как cкачать? Как скачать Львы для ягнят через торрент | UTorrent

% Раздел Тема Автор DL S | L
Фильмы [HD 720p, 1080p] (Хороший звук DUB, MVO) [ 4.62 GB ] Львы для ягнят / Lions for Lambs [2007 военный BDRip 720p] L_E_X Скачать
1 | 0

28-11-2019 20:33  

Отключить всю рекламу на сайте

    Дорогой пользователь! Огромная просьба, поблагодарите релизера, оцените раздачу и оставьте свои комментарий, если Вы скачали Львы для ягнят через торрент бесплатно! Внесите свою лепту в развитие PiratBit!
    Комментировать посты могут только пользователи прошедшие не сложную регистрацию
    Показать сообщения:    

    Львы для ягнят через торрент
    Скачать бесплатно Львы для ягнят
    Львы для ягнят скачать торрент
    Львы для ягнят смотреть онлайн
    Cкачать фильм Львы для ягнят бесплатно
    Львы для ягнят скачать торрент в хорошем качестве
    Львы для ягнят смотреть онлайн бесплатно в хорошем качестве


    Вы не можете начинать темы
    Вы не можете отвечать на сообщения
    Вы не можете редактировать свои сообщения
    Вы не можете удалять свои сообщения
    Вы не можете голосовать в опросах
    Вы не можете прикреплять файлы к сообщениям
    Вы можете скачивать файлы