Ссылка на приватное зеркало нашего сайта всего за 1$. Внимание количество ограничено!!!

2 сезон

iTunes

iTunes

1

iTunes

iTunes

iTunes

WEBRip

iTunes

30
pack

Новость дня

ВАЖНО

!!Акция!!

Alien_RageХит недели

RePack

Horizon Zero Dawn

ИГРА 18+

pack

RePack

jed

!!Акция!!

Alien_Rage

RePack

fifa19

RePack

Assassins Creed: Odyssey

RePack

NEED FOR SPEED™ PAYBACK

4 сезон

9 сезон

Бесстыжие 9 сезон

Все сериалы

все сериалы на PB.wtf

RePack

FAR CRY 5
  

Билет на Vegas (Гор Киракосян) [2012 г., комедия, приключения, BDRip 720p, лицензия] piratbit.pw

Билет на Vegas через торрент piratbit.pw

Размер: 3.68 GB | Добавлен: 7 лет 5 мес. назад | Торрент скачан:352 раза
Скачать  

24-03-2013 17:32 Билет на Vegas Скачать торрент  



Билет на Vegas

«Кто же сорвет джек-пот?»

Год выпуска: 2012
Страна: Россия
Жанр: комедия, приключения,
Продолжительность: 01:29:37
Тип релиза: Лицензия
Субтитры: Нет

Режиссер: Гор Киракосян
Продюссер: Армен Григорян, Михаил Галустян, Армен Ананикян
Сценарий: Ирина Пивоварова, Сергей Калужанов, Гор Киракосян

Бюджет: $4 000 000

Мировой рейтинг IMDB 4.40 (270)


В ролях: Михаил Галустян, Иван Стебунов, Ингрид Олеринская, Владимир Яглыч, Наталья Ноздрина, Дэнни Трехо, Олег Тактаров, Ким Уитли, Гильермо Диас, Годфри,

Описание: На молодую парочку, Макса и Лизу, сваливается удача: они становятся победителями лотереи с выигрышем в пять миллионов долларов! Но получить деньги можно только на торжественной церемонии в столице порока, азартных игр и безудержного веселья, Лас Вегасе... Счастливчики не подозревают, что на большой куш есть и другие претенденты. Оказавшись в Америке, они попадают на крючок очень опасного, но невероятно обаятельного мошенника Гарика, вылитого Элвиса Пресли.Кто же сорвет джек-пот?

Качество: BDRip 720p
Формат: MKV
Видео кодек: H.26x
Аудио кодек: DTS
Видео: 1280x534 (2.35:1), 24.000 fps, 4 249 Kbps (0.259 bit/pixel)
Аудио#1: DTS, 48.0 KHz, 6 ch, 1 510 Kbps, CBR (Russian)










Общее
Уникальный идентификатор : 170830704854000477579012348348614358748 (0x8084CC0787DD97DB9268BB2F4C04B6DC)
Полное имя : E:Билет на Vegas.2012.BluRay.720p.DTS.x264.Rus.mkv
Формат : Matroska
Версия формата : Version 2
Размер файла : 3,68 Гбайт
Продолжительность : 1 ч. 29 м.
Общий поток : 5876 Кбит/сек
Дата кодирования : UTC 2013-02-14 18:43:05
Программа кодирования : mkvmerge v4.9.1 ('Ich will') built on Jul 11 2011 23:53:15
Библиотека кодирования : libebml v1.2.1 + libmatroska v1.1.1

Видео
Идентификатор : 1
Формат : AVC
Формат/Информация : Advanced Video Codec
Профиль формата : High@L4.1
Параметр CABAC формата : Да
Параметр ReFrames формата : 12 кадров
Идентификатор кодека : V_MPEG4/ISO/AVC
Продолжительность : 1 ч. 29 м.
Битрейт : 4250 Кбит/сек
Ширина : 1280 пикселей
Высота : 534 пикселя
Соотношение сторон : 2,40:1
Режим частоты кадров : Постоянный
Частота кадров : 24,000 кадра/сек
Цветовое пространство : YUV
Субдискретизация насыщенности : 4:2:0
Битовая глубина : 8 бит
Тип развёртки : Прогрессивная
Бит/(Пиксели*Кадры) : 0.259
Размер потока : 2,66 Гбайт (72%)
Заголовок : Bilet na Vegas 2012 720p BluRay AC3 x264-IRONCLUB
Библиотека кодирования : x264 core 129 r2245kMod bc13772
Настройки программы : cabac=1 / ref=12 / deblock=1:-3:-3 / analyse=0x3:0x113 / me=umh / subme=11 / psy=1 / fade_compensate=0.00 / psy_rd=0.95:0.00 / mixed_ref=1 / me_range=24 / chroma_me=1 / trellis=2 / 8x8dct=1 / cqm=0 / deadzone=21,11 / fast_pskip=0 / chroma_qp_offset=-2 / threads=12 / lookahead_threads=2 / sliced_threads=0 / nr=0 / decimate=1 / interlaced=0 / bluray_compat=0 / constrained_intra=0 / bframes=9 / b_pyramid=2 / b_adapt=2 / b_bias=0 / direct=3 / weightb=1 / open_gop=0 / weightp=2 / keyint=250 / keyint_min=24 / scenecut=40 / intra_refresh=0 / rc_lookahead=60 / rc=crf / mbtree=0 / crf=18.0000 / qcomp=0.70 / qpmin=0 / qpmax=69 / qpstep=4 / vbv_maxrate=50000 / vbv_bufsize=62500 / crf_max=0.0 / nal_hrd=none / ip_ratio=1.30 / pb_ratio=1.20 / aq=1:0.85
Язык : English
Default : Да
Forced : Да

Аудио
Идентификатор : 2
Формат : DTS
Формат/Информация : Digital Theater Systems
Режим : 16
Параметр Endianness формата : Big
Идентификатор кодека : A_DTS
Продолжительность : 1 ч. 29 м.
Вид битрейта : Постоянный
Битрейт : 1509 Кбит/сек
Каналы : 6 каналов
Расположение каналов : Front: L C R, Side: L R, LFE
Частота : 48,0 КГц
Битовая глубина : 24 бит
Метод сжатия : С потерями
Размер потока : 967 Мбайт (26%)
Язык : Russian
Default : Да
Forced : Нет

Меню
00:00:00.000 : en:00:00:00.000
00:08:05.500 : en:00:08:05.500
00:14:44.000 : en:00:14:44.000
00:26:09.875 : en:00:26:09.875
00:30:14.666 : en:00:30:14.666
00:39:56.041 : en:00:39:56.041
00:47:11.208 : en:00:47:11.208
00:55:43.708 : en:00:55:43.708
01:03:19.458 : en:01:03:19.458
01:09:52.208 : en:01:09:52.208
01:13:47.708 : en:01:13:47.708
01:17:54.375 : en:01:17:54.375


Билет на Vegas скачать торрент






piratbit.pw



Скачать Билет на Vegas через торрент http://pic.kartinco.top/images/2/v2457o4zn5.png Скачать фильм Билет на Vegas через торрент бесплантно в хорошем качестве Описание: На молодую парочку, Макса и Лизу, сваливается удача: они становятся победителями лотереи с выигрышем в пять миллионов долларов! ... 7 10 19
Info! Золотая раздача, скачанное не засчитывается.
Торрент: Зарегистрирован [2013-03-24 17:32] · скачан: 352 раз
Статус: √ проверено
Размер: 3.68 GB
Как cкачать? Как скачать Билет на Vegas через торрент | qTorrent

% Раздел Тема Автор DL S | L
Наши новые фильмы 2012 [ 1.37 GB ] Билет на Vegas [2012 DVDRip [ лицензия ]] ALIK1989 Скачать
1 | 0
Наши фильмы (Blu-ray, BD-Remux, HDDVD) [ 24.71 GB ] Билет на Vegas [2012 Blu-Ray Оригинал лицензия] DEVI Скачать
1 | 0
Наши новые фильмы 2012 [ 703 MB ] Билет на Vegas [2012 DVDRip Оригинал / лицензия!] Mr. Freeman Скачать
1 | 0
Наши фильмы (DVD фильмы) [ 5.46 GB ] Билет на Vegas [2013 DVD9] R5 voovaz Скачать
1 | 0
Наши новые фильмы 2012 [ 1.74 GB ] Билет на Vegas [2012 DVDRip-AVC лицензия] Sудья Скачать
1 | 0

28-11-2019 20:33  

Отключить всю рекламу на сайте

26-03-2013 21:30 Билет на Vegas Скачать торрент  

отличный фильм))лично мне понравился, но на один раз)piratbit.pw



    Дорогой пользователь! Огромная просьба, поблагодарите релизера, оцените раздачу и оставьте свои комментарий, если Вы скачали Билет на Vegas через торрент бесплатно! Внесите свою лепту в развитие PiratBit!
    Комментировать посты могут только пользователи прошедшие не сложную регистрацию
    Показать сообщения:    

    Билет на Vegas через торрент
    Скачать бесплатно Билет на Vegas
    Билет на Vegas скачать торрент
    Билет на Vegas смотреть онлайн
    Cкачать фильм Билет на Vegas бесплатно
    Билет на Vegas скачать торрент в хорошем качестве
    Билет на Vegas смотреть онлайн бесплатно в хорошем качестве


    Вы не можете начинать темы
    Вы не можете отвечать на сообщения
    Вы не можете редактировать свои сообщения
    Вы не можете удалять свои сообщения
    Вы не можете голосовать в опросах
    Вы не можете прикреплять файлы к сообщениям
    Вы можете скачивать файлы