1 сезон

3 сезон

iTunes

1

iTunes

DUB Netflix

iTunes

13

1 сезон

RePack

30

Deluxe

pack

Легкие деньги

ВАЖНО

ИГРА 18+

pack

RePack

MK11

RePack

jed

RePack

fifa19

RePack

RDR2

RePack

NEED FOR SPEED™ PAYBACK

4 сезон

9 сезон

Бесстыжие 9 сезон

Все сериалы

все сериалы на PB.wtf

RePack

FAR CRY 5

Anonymous, доброй ночи, мы не успеваем до 1 числа собрать деньги на оплату серверов, помогите нам пожалуйста в это трудное время. В качестве благодарности мы отключим Вам всю рекламу на сайте (укажите свой ник в строку Ваше имя)!

×
  
Magnet ссылка

Ночь властелина (Ночь пожирателей плоти) / Night of the Flesh Eaters (Д. МакГэррити) [2008 г., ужасы, комедия, DVDRip, Профессиональный двухголосый] piratbit.pw

Ночь властелина через торрент piratbit.pw

Размер: 746 MB | Добавлен: 8 лет 3 мес. назад | Торрент скачан:27 раз
Скачать  

13-03-2013 10:27 Ночь властелина Скачать торрент  

Ночь властелина (Ночь пожирателей плоти) / Night of the Flesh Eaters
Год выпуска: 2008
Страна: США
Жанр: ужасы, комедия,
Продолжительность: 01:21:53
Перевод: Профессиональный двухголосый

Режиссер: Д. МакГэррити
Продюссер: Eric Flenner, Д. МакГэррити
Сценарий: Д. МакГэррити

Премьера в мире: 1 октября 2008

возраст 16+ зрителям, достигшим 16 лет
IMDb: 3.40 (47)
Кинопоиск: 6.000 19

В ролях: Джеймс Лемир, Гия Франчия, Дэвид Розенхаус, Джессика Грин, Фред Стоверинк, Д. МакГэррити, Эрик Даман, Аманда Абрахам, Том Дэвлин,

Описание: Самые совершенные охотники на людей. Таясь во тьме, под покровом ночи они выходят на охоту, чтобы выследить тебя. И попав в их руки, ты будешь мечтать о смерти…

Доп. информация: релиз на DVD
31 мая 2011, «Lizard Cinema Trade»

Качество: DVDRip
Формат: AVI
Видео кодек: XviD
Аудио кодек: MP3
Видео: 640x352 (1.82:1), 25 fps, XviD build 50 ~1136 kbps avg, 0.20 bit/pixel
Аудио#1: 48 kHz, MPEG Layer 3, 2 ch, ~128.00 kbps avg









Общее
Полное имя : D:TorrentFlesh Eaters.avi
Формат : AVI
Формат/Информация : Audio Video Interleave
Размер файла : 746 Мбайт
Продолжительность : 1 ч. 21 м.
Общий поток : 1275 Кбит/сек
Программа кодирования : VirtualDubMod 1.5.10.3 | www.virtualdub-fr.org || (build 2550/release)
Библиотека кодирования : VirtualDubMod build 2550/release

Видео
Идентификатор : 0
Формат : MPEG-4 Visual
Профиль формата : Advanced Simple@L5
Параметр BVOP формата : 2
Параметр QPel формата : Нет
Параметр GMC формата : Без точки перехода
Параметр матрицы формата : Выборочная
Идентификатор кодека : XVID
Идентификатор кодека/Подсказка : XviD
Продолжительность : 1 ч. 21 м.
Битрейт : 1137 Кбит/сек
Ширина : 640 пикс.
Высота : 352 пикс.
Соотношение сторон : 16:9
Частота кадров : 25,000 кадр/сек
Цветовое пространство : YUV
Подвыборка цветности : 4:2:0
Битовая глубина : 8 бит
Тип развёртки : Прогрессивная
Метод сжатия : С потерями
Бит/(Пиксели*Кадры) : 0.202
Размер потока : 666 Мбайт (89%)
Библиотека кодирования : XviD 1.2.1 (UTC 2008-12-04)

Аудио
Идентификатор : 1
Формат : MPEG Audio
Версия формата : Version 1
Профиль формата : Layer 3
Идентификатор кодека : 55
Идентификатор кодека/Подсказка : MP3
Продолжительность : 1 ч. 21 м.
Вид битрейта : Постоянный
Битрейт : 128 Кбит/сек
Каналы : 2 канала
Частота : 48,0 КГц
Метод сжатия : С потерями
Размер потока : 75,0 Мбайт (10%)
Выравнивание : Соединение по промежуткам
Продолжительность промежутка : 40 мс. (1,00 видеокадр)
Время предзагрузки промежутка : 504 ms
Библиотека кодирования : LAME3.98r
Настройки программы : -m s -V 4 -q 2 -lowpass 17 -b 128

piratbit.pw



Скачать Ночь властелина через торрент https://pic1.kartinco.top/images/21/edw29k8iom.jpg Скачать фильм Ночь властелина через торрент бесплантно в хорошем качестве Описание: Самые совершенные охотники на людей. Таясь во тьме, под покровом ночи они выходят на охоту, чтобы выследить тебя. И попав в их ... 5 10 1
Info! Золотая раздача, скачанное не засчитывается.
Торрент: Зарегистрирован [2013-03-13 10:27] · скачан: 27 раз
Статус: √ проверено
Размер: 746 MB
Как cкачать? Как скачать Ночь властелина через торрент | UTorrent

28-11-2019 20:33  

Отключить всю рекламу на сайте

    Дорогой пользователь! Огромная просьба, поблагодарите релизера, оцените раздачу и оставьте свои комментарий, если Вы скачали Ночь властелина через торрент бесплатно! Внесите свою лепту в развитие PiratBit!
    Комментировать посты могут только пользователи прошедшие не сложную регистрацию
    Показать сообщения:    

    Ночь властелина через торрент
    Скачать бесплатно Ночь властелина
    Ночь властелина скачать торрент
    Ночь властелина смотреть онлайн
    Cкачать фильм Ночь властелина бесплатно
    Ночь властелина скачать торрент в хорошем качестве
    Ночь властелина смотреть онлайн бесплатно в хорошем качестве


    Вы не можете начинать темы
    Вы не можете отвечать на сообщения
    Вы не можете редактировать свои сообщения
    Вы не можете удалять свои сообщения
    Вы не можете голосовать в опросах
    Вы не можете прикреплять файлы к сообщениям
    Вы можете скачивать файлы