Ссылка на приватное зеркало нашего сайта всего за 1$. Внимание количество ограничено!!!

2 сезон

iTunes

iTunes

1

iTunes

iTunes

iTunes

WEBRip

iTunes

30
pack

Вам бонус

ВАЖНО

!!Акция!!

Alien_RageХит недели

RePack

Horizon Zero Dawn

ИГРА 18+

pack

RePack

jed

!!Акция!!

Alien_Rage

RePack

fifa19

RePack

Assassins Creed: Odyssey

RePack

NEED FOR SPEED™ PAYBACK

4 сезон

9 сезон

Бесстыжие 9 сезон

Все сериалы

все сериалы на PB.wtf

RePack

FAR CRY 5
  

Джунгли (Александр Войтинский) [2012 г., мелодрама, комедия, приключения, BDRip 720p, Оригинал] piratbit.pw

Джунгли через торрент piratbit.pw

Размер: 4.42 GB | Добавлен: 7 лет 6 мес. назад | Торрент скачан:169 раз
Скачать  

09-03-2013 09:27 Джунгли Скачать торрент  



Джунгли
«Любовь - это война!»

Год выпуска: 2012
Страна: Россия
Жанр: мелодрама, комедия, приключения
Продолжительность: 01:20:02
Перевод: Оригинал
Субтитры: Нет

Режиссер: Александр Войтинский
Продюссер: Сергей Сельянов, Александр Войтинский, Михаил Врубель
Сценарий: Алексей Федоров, Олег Маловичко, caxap.1kg

Мировой рейтинг IMDB 5.00 (316)


В ролях: Сергей Светлаков, Вера Брежнева, Александр Макогон, Александр Половцев, Марина Дюжева, Михаил Ефремов, Ирина Медведева, Андрей Гаврилов

Описание: У Сергея и Марины в семейной жизни наступил кризис. Во время одной из ссор, они решают поехать в экзотическое путешествие. Всю дорогу между супругами не утихают ссоры, которые в конце концов приводят к тому, что они оказываются на необитаемом острове, затерянном в океане. Вместо того чтобы вместе бороться за выживание, наши герои продолжают выяснять отношения, постепенно переходя к настоящим боевым действиям. В довершение несчастий оказывается, что остров населен племенем воинствующих туземцев.




Качество: BDRip 720p
Формат: MKV
Видео кодек: H.26x
Аудио кодек: DTS
Видео: 1280x542 (2.35:1), 23.976 fps, 5 926 Kbps (0.356 bit/pixel)
Аудио#1: DTS, 48.0 KHz, 6 ch, 1 510 Kbps, CBR





Общее
Уникальный идентификатор : 210900141708086772161911633154784682707 (0x9EA9E3CB2F6F8E79B978C9C8CACCE2D3)
Полное имя : E:Джунгли.2012.BDRip.720p..mkv
Формат : Matroska
Версия формата : Version 2
Размер файла : 4,42 Гбайт
Продолжительность : 1 ч. 23 м.
Общий поток : 7587 Кбит/сек
Название фильма : IRONCLUB
Дата кодирования : UTC 2013-01-27 06:07:49
Программа кодирования : mkvmerge v5.2.0 ('I can't explain') built on Dec 18 2011 18:12:03
Библиотека кодирования : libebml v1.2.3 + libmatroska v1.3.0

Видео
Идентификатор : 1
Формат : AVC
Формат/Информация : Advanced Video Codec
Профиль формата : High@L4.1
Параметр CABAC формата : Да
Параметр ReFrames формата : 12 кадров
Идентификатор кодека : V_MPEG4/ISO/AVC
Продолжительность : 1 ч. 23 м.
Битрейт : 5927 Кбит/сек
Ширина : 1280 пикселей
Высота : 542 пикселя
Соотношение сторон : 2,35:1
Режим частоты кадров : Постоянный
Частота кадров : 23,976 кадра/сек
Цветовое пространство : YUV
Субдискретизация насыщенности : 4:2:0
Битовая глубина : 8 бит
Тип развёртки : Прогрессивная
Бит/(Пиксели*Кадры) : 0.356
Размер потока : 3,46 Гбайт (78%)
Заголовок : Dzhungli 2012 720p BluRay DTS x264-IRONCLUB
Библиотека кодирования : x264 core 129 r2245kMod bc13772
Настройки программы : cabac=1 / ref=12 / deblock=1:-3:-3 / analyse=0x3:0x113 / me=umh / subme=11 / psy=1 / fade_compensate=0.00 / psy_rd=1.10:0.00 / mixed_ref=1 / me_range=48 / chroma_me=1 / trellis=2 / 8x8dct=1 / cqm=0 / deadzone=21,11 / fast_pskip=0 / chroma_qp_offset=-2 / threads=12 / lookahead_threads=2 / sliced_threads=0 / nr=0 / decimate=1 / interlaced=0 / bluray_compat=0 / constrained_intra=0 / bframes=9 / b_pyramid=2 / b_adapt=2 / b_bias=0 / direct=3 / weightb=1 / open_gop=0 / weightp=2 / keyint=250 / keyint_min=23 / scenecut=40 / intra_refresh=0 / rc_lookahead=60 / rc=crf / mbtree=0 / crf=17.5000 / qcomp=0.70 / qpmin=0 / qpmax=69 / qpstep=4 / vbv_maxrate=50000 / vbv_bufsize=62500 / crf_max=0.0 / nal_hrd=none / ip_ratio=1.30 / pb_ratio=1.20 / aq=1:0.85
Язык : Russian
Default : Да
Forced : Да

Аудио
Идентификатор : 2
Формат : DTS
Формат/Информация : Digital Theater Systems
Режим : 16
Параметр Endianness формата : Big
Идентификатор кодека : A_DTS
Продолжительность : 1 ч. 23 м.
Вид битрейта : Постоянный
Битрейт : 1509 Кбит/сек
Каналы : 6 каналов
Расположение каналов : Front: L C R, Side: L R, LFE
Частота : 48,0 КГц
Битовая глубина : 16 бит
Метод сжатия : С потерями
Размер потока : 901 Мбайт (20%)
Заголовок : DTS 5.1 @ 1536 kbps
Язык : Russian
Default : Да
Forced : Да

Меню
00:00:00.000 : ru:00:00:00.000
00:04:00.740 : ru:00:04:00.740
00:07:56.267 : ru:00:07:56.267
00:14:02.007 : ru:00:14:02.007
00:17:18.287 : ru:00:17:18.287
00:21:46.930 : ru:00:21:46.930
00:27:42.410 : ru:00:27:42.410
00:34:58.763 : ru:00:34:58.763
00:40:15.579 : ru:00:40:15.579
00:46:24.239 : ru:00:46:24.239
00:51:48.021 : ru:00:51:48.021
00:56:29.052 : ru:00:56:29.052
01:00:57.987 : ru:01:00:57.987
01:07:08.065 : ru:01:07:08.065
01:13:54.096 : ru:01:13:54.096
01:18:50.183 : ru:01:18:50.183

Джунгли скачать торрент






piratbit.pw



Скачать Джунгли через торрент http://pic.kartinco.top/images/2/x3wfrvh9cz.png Скачать фильм Джунгли через торрент бесплантно в хорошем качестве Описание: У Сергея и Марины в семейной жизни наступил кризис. Во время одной из ссор, они решают поехать в экзотическое путешествие. Всю ... 9.7 10 11
Info! Золотая раздача, скачанное не засчитывается.
Торрент: Зарегистрирован [2013-03-09 09:27] · скачан: 169 раз
Статус: √ проверено
Размер: 4.42 GB
Как cкачать? Как скачать Джунгли через торрент | qTorrent

% Раздел Тема Автор DL S | L
Фильмы [HD 720p, 1080p] (Хороший звук DUB, MVO) [ 11.82 GB ] Книга джунглей / The Jungle Book [2016 BDRip 1080p [] smaster Скачать
1 | 0
Фильмы 2017 [DVDrip, WEB-DLRip, HDrip] (DUB, MVO) [ 1.46 GB ] Джунгли / Jungle [2017 BDRip] DUB [ BD RUS ] bober100 Скачать
1 | 0
Фильмы (HD 720p, 1080p) (48-60 fps) [ 4.07 GB ] Джунгли / Jungle [2017 BDRip-HEVC 720p / 60 FPS Оригинал] Tiberiumsun69 Скачать
1 | 0
Фильмы [HD 720p, 1080p] (Хороший звук DUB, MVO) [ 7.97 GB ] Джунгли / Jungle [2017 BDRip 1080p] DUB [] +AVO [М.Яроцкий] bober100 Скачать
2 | 0
Фильмы (Blu-ray, BD-Remux, HDDVD) [ 23.23 GB ] Джунгли / Jungle [2017 Blu-ray 1080p] DUB [Rus Transfer] [] bober100 Скачать
1 | 0
Фильмы 2017 [DVDrip, WEB-DLRip, HDrip] (DUB, MVO) [ 2.18 GB ] Джунгли / Jungle [2017 BDRip] - [] Twi7ter Скачать
1 | 0
Фильмы 2017 [DVDrip, WEB-DLRip, HDrip] (DUB, MVO) [ 2.77 GB ] Джунгли / Jungle [2017 BDRip-AVC] DUB [] +AVO [М.Яроцкий] bober100 Скачать
1 | 0

28-11-2019 20:33  

Отключить всю рекламу на сайте

    Дорогой пользователь! Огромная просьба, поблагодарите релизера, оцените раздачу и оставьте свои комментарий, если Вы скачали Джунгли через торрент бесплатно! Внесите свою лепту в развитие PiratBit!
    Комментировать посты могут только пользователи прошедшие не сложную регистрацию
    Показать сообщения:    

    Джунгли через торрент
    Скачать бесплатно Джунгли
    Джунгли скачать торрент
    Джунгли смотреть онлайн
    Cкачать фильм Джунгли бесплатно
    Джунгли скачать торрент в хорошем качестве
    Джунгли смотреть онлайн бесплатно в хорошем качестве


    Вы не можете начинать темы
    Вы не можете отвечать на сообщения
    Вы не можете редактировать свои сообщения
    Вы не можете удалять свои сообщения
    Вы не можете голосовать в опросах
    Вы не можете прикреплять файлы к сообщениям
    Вы можете скачивать файлы