Ссылка на приватное зеркало нашего сайта всего за 1$. Внимание количество ограничено!!!

2 сезон

iTunes

iTunes

1

iTunes

iTunes

iTunes

WEBRip

iTunes

30
pack

Вам бонус

ВАЖНО

!!Акция!!

Alien_RageХит недели

RePack

Horizon Zero Dawn

ИГРА 18+

pack

RePack

jed

!!Акция!!

Alien_Rage

RePack

fifa19

RePack

Assassins Creed: Odyssey

RePack

NEED FOR SPEED™ PAYBACK

4 сезон

9 сезон

Бесстыжие 9 сезон

Все сериалы

все сериалы на PB.wtf

RePack

FAR CRY 5
  

Республика ШКИД (Геннадий Полока) [1966 г., драма, комедия, семейный, DVDRip] piratbit.pw

Республика ШКИД через торрент piratbit.pw

Размер: 1.46 GB | Добавлен: 6 лет 9 мес. назад | Торрент скачан:211 раз
Скачать  

26-02-2013 13:20 Республика ШКИД Скачать торрент  

Республика ШКИД

Год выпуска: 1966
Страна: СССР
Жанр: драма, комедия, семейный
Продолжительность: 01:37:08
Перевод: Не требуется

Режиссер: Геннадий Полока
Сценарий: Григорий Белых, Леонид Пантелеев

Премьера в мире: 29 декабря 1966



В ролях: Сергей Юрский,Юлия Бурыгина,Павел Луспекаев,Александр Мельников,Анатолий Столбов,Георгий Колосов,Вера Титова,Лев Вайнштейн,Виктор Перевалов,Александр Кавалеров

Описание: Республикой ШКИД назвали свою Школу Имени Достоевского свободолюбивые воспитанники — бывшие беспризорники. Обезоруживающее доверие педагогов научило ребят достоинству, помогло не раствориться в беге смутного времени…

Качество: DVDRip
Формат: AVI
Видео кодек: XviD
Аудио кодек: AC3
Видео: 720x304, (2,35:1), 25,000 кадров/сек, 1955 Кбит/сек, 0.357 бит/пикс
Аудио: 48,0 КГц, 2 канала, AC3, 192 Кбит/сек


скриншот   скриншот   скриншот   скриншот   скриншот   скриншот  
Общее
Полное имя : D:загрузкиРеспублика ШКИД.avi
Формат : AVI
Формат/Информация : Audio Video Interleave
Размер файла : 1,46 Гбайт
Продолжительность : 1 ч. 37 м.
Общий поток : 2157 Кбит/сек
Программа кодирования : VirtualDubMod 1.5.10.3 | www.virtualdub-fr.org || (build 2550/release)
Библиотека кодирования : VirtualDubMod build 2550/release

Видео
Идентификатор : 0
Формат : MPEG-4 Visual
Профиль формата : Advanced Simple@L5
Параметр BVOP формата : 2
Параметр QPel формата : Нет
Параметр GMC формата : Без точки перехода
Параметр матрицы формата : Выборочная
Идентификатор кодека : XVID
Идентификатор кодека/Подсказка : XviD
Продолжительность : 1 ч. 37 м.
Битрейт : 1955 Кбит/сек
Ширина : 720 пикселей
Высота : 304 пикселя
Соотношение сторон : 2,35:1
Частота кадров : 25,000 кадров/сек
Цветовое пространство : YUV
Субдискретизация насыщенности : 4:2:0
Битовая глубина : 8 бит
Тип развёртки : Прогрессивная
Метод сжатия : С потерями
Бит/(Пиксели*Кадры) : 0.357
Размер потока : 1,33 Гбайт (91%)
Библиотека кодирования : XviD 64

Аудио
Идентификатор : 1
Формат : AC-3
Формат/Информация : Audio Coding 3
Расширение режима : CM (complete main)
Параметр Endianness формата : Big
Идентификатор кодека : 2000
Продолжительность : 1 ч. 37 м.
Вид битрейта : Постоянный
Битрейт : 192 Кбит/сек
Каналы : 2 канала
Расположение каналов : Front: L R
Частота : 48,0 КГц
Битовая глубина : 16 бит
Метод сжатия : С потерями
Размер потока : 133 Мбайт (9%)
Выравнивание : Разделение по промежуткам
Продолжительность промежутка : 40 мс. (1,00 видеокадр)
Время предзагрузки промежутка : 500 мс.

piratbit.pw



Скачать Республика ШКИД через торрент http://pic.kartinco.top/images/2/wqz266ae3n.jpg Скачать фильм Республика ШКИД через торрент бесплантно в хорошем качестве Описание: Республикой ШКИД назвали свою Школу Имени Достоевского свободолюбивые воспитанники — бывшие беспризорники. Обезоруживающее ... 9.8 10 20
Info! Золотая раздача, скачанное не засчитывается.
Торрент: Зарегистрирован [2013-12-22 11:27] · скачан: 211 раз
Статус: √ проверено
Размер: 1.46 GB
Как cкачать? Как скачать Республика ШКИД через торрент | qTorrent

% Раздел Тема Автор DL S | L
Кино СССР [ 1.38 GB ] Республика ШКИД [1966 траги DVDRip-AVC] Sub Rus Eng -=Cherry=- Скачать
1 | 0

28-11-2019 20:33  

Отключить всю рекламу на сайте

22-12-2013 17:04 Республика ШКИД Скачать торрент  

Супер!!! Смотрел фильм раз сто и ещё буду смотреть - ведь Совковое кино самое лучшее кино в МИРЕ !!! Вот спасибо так спасибо!!!piratbit.pw



04-07-2014 09:45 Республика ШКИД Скачать торрент  

Шикарный фильм! Были же мастера...piratbit.pw



16-02-2015 16:26 Республика ШКИД Скачать торрент  

Это наша КЛАССИКА!!! Большое спасибо!!!!piratbit.pw



    Дорогой пользователь! Огромная просьба, поблагодарите релизера, оцените раздачу и оставьте свои комментарий, если Вы скачали Республика ШКИД через торрент бесплатно! Внесите свою лепту в развитие PiratBit!
    Комментировать посты могут только пользователи прошедшие не сложную регистрацию
    Показать сообщения:    

    Республика ШКИД через торрент
    Скачать бесплатно Республика ШКИД
    Республика ШКИД скачать торрент
    Республика ШКИД смотреть онлайн
    Cкачать фильм Республика ШКИД бесплатно
    Республика ШКИД скачать торрент в хорошем качестве
    Республика ШКИД смотреть онлайн бесплатно в хорошем качестве


    Вы не можете начинать темы
    Вы не можете отвечать на сообщения
    Вы не можете редактировать свои сообщения
    Вы не можете удалять свои сообщения
    Вы не можете голосовать в опросах
    Вы не можете прикреплять файлы к сообщениям
    Вы можете скачивать файлы