1 сезон

1 сезон

iTunes

1

КиноПоиск HD

Кинопоиск HD

iTunes

13

1 сезон

RePack

30

Новинка

ВАЖНО

ИГРА 18+

pack

RePack

MK11
pack

Легкие деньги

RePack

jed

RePack

fifa19

RePack

RDR2

RePack

NEED FOR SPEED™ PAYBACK

4 сезон

9 сезон

Бесстыжие 9 сезон

Все сериалы

все сериалы на PB.wtf

RePack

FAR CRY 5
  
Magnet ссылка

Муви 43 / Movie 43 (Стивен Брилл, Питер Фаррелли, Боб Оденкирк) [2013 г., комедия, HDRip, AVO (Гоблин)] piratbit.pw

Муви 43 через торрент piratbit.pw

Размер: 700 MB | Добавлен: 8 лет 1 мес. назад | Торрент скачан:1257 раз
Скачать  

25-02-2013 18:29 Муви 43 Скачать торрент  

Муви 43 / Movie 43******************** Год выпуска: 2013
Страна: США
Выпущено: GreeneStreet Films Inc., Relativity Media, Virgin Produced, Wessler Entertainment...
Жанр: комедия
Продолжительность: 01:39:30
Перевод: Авторский [Лицензия] Д. Пучков aka Goblin (нецензурный)

Режиссер: Стивен Брилл, Питер Фаррелли, Боб Оденкирк
Продюссер: Питер Фаррелли, Райан Кэвэна, Джон Пенотти
Сценарий: Уилл Кэрло, Стив Бэйкер, Джейкоб Флейшер
Премьера в мире: 11 января 2013
Премьера (РФ): 1 января 2013



В ролях: Холли Берри, Джерард Батлер, Анна Фэрис, Хью Джекман, Джонни Ноксвил, Кристофер Минц-Плассе, Шонн Уильям Скотт, Эмма Стоун, Кейт Уинслет, Деннис Куэйд, Наталья Грачева, Татьяна Шитова, Александр Рахленко, Юрий Деркач, Антон Колесников

Описание: 25 cуперзвезд первой величины — в комедийном проекте, который состоит из двух десятков мини-новелл с нескончаемым потоком шуток, гэгов, острот и пародий, о страстях и страстишках человеческих.



Сэмпл / Трейлер

Качество: HDRip
Формат: AVI
Видео кодек: XviD
Аудио кодек: MP3
Видео: MPEG4, XviD, 640x352 (16:9), 24.000 fps, 846 Kbps (0.156 bit/pixel)
Аудио: MP3 , 48.0 KHz, 2 ch, 128 Kbps, CBR********************
Формат : AVI
Формат/Информация : Audio Video Interleave
Размер файла : 700 Мбайт
Продолжительность : 1 ч. 39 м.
Общий поток : 983 Кбит/сек
Название фильма : Муви 43
Жанр : комедия
Программа кодирования : VirtualDubMod 1.5.10.3 | www.virtualdub-fr.org || (build 2550/release)
Формат оригинала/Имя : Фильмы
Примечание : Rip от кэп

Видео
Идентификатор : 0
Формат : MPEG-4 Visual
Профиль формата : Advanced Simple@L5
Параметр BVOP формата : 1
Параметр QPel формата : Нет
Параметр GMC формата : Без точки перехода
Параметр матрицы формата : Default (MPEG)
Идентификатор кодека : XVID
Идентификатор кодека/Подсказка : XviD
Продолжительность : 1 ч. 39 м.
Битрейт : 846 Кбит/сек
Ширина : 640 пикселей
Высота : 352 пикселя
Соотношение сторон : 16:9
Частота кадров : 24,000 кадра/сек
Цветовое пространство : YUV
Субдискретизация насыщенности : 4:2:0
Битовая глубина : 8 бит
Тип развёртки : Прогрессивная
Метод сжатия : С потерями
Бит/(Пиксели*Кадры) : 0.156
Размер потока : 602 Мбайт (86%)
Библиотека кодирования : XviD 1.2.1 (UTC 2008-12-04)

Аудио
Идентификатор : 1
Формат : MPEG Audio
Версия формата : Version 1
Профиль формата : Layer 3
Идентификатор кодека : 55
Идентификатор кодека/Подсказка : MP3
Продолжительность : 1 ч. 39 м.
Вид битрейта : Постоянный
Битрейт : 128 Кбит/сек
Каналы : 2 канала
Частота : 48,0 КГц
Метод сжатия : С потерями
Размер потока : 91,1 Мбайт (13%)
Выравнивание : Соединение по промежуткам
Продолжительность промежутка : 42 мс. (1,00 видеокадр)
Время предзагрузки промежутка : 504 мс.
Библиотека кодирования : LAME3.99r
Настройки программы : -m s -V 4 -q 2 -lowpass 17 -b 128
********************скриншот   скриншот   скриншот   скриншот   скриншот   скриншот  piratbit.pw



Скачать Муви 43 через торрент http://i2.imageban.ru/out/2013/02/25/73d6d40a82befabd74488a27f38fc237.png Скачать фильм Муви 43 через торрент бесплантно в хорошем качестве Описание: 25 cуперзвезд первой величины — в комедийном проекте, который состоит из двух десятков мини-новелл с нескончаемым потоком шуток, ... 8.8 10 20
Info! Золотая раздача, скачанное не засчитывается.
Торрент: Зарегистрирован [2013-02-25 18:29] · скачан: 1 257 раз
Статус: √ проверено
Размер: 700 MB
Как cкачать? Как скачать Муви 43 через торрент | UTorrent

% Раздел Тема Автор DL S | L
Фильмы [HD 720p, 1080p] (Хороший звук DUB, MVO) [ 5.75 GB ] Муви 43 / Movie 43 [2013 BDRip 720p] DUB AVO potroks Скачать
1 | 0
Фильмы [HD 720p, 1080p] (Хороший звук DUB, MVO) [ 8.1 GB ] Муви 43 / Movie 43 [2013 BDRip 1080p DUB + Гоблин лицензия] Sудья Скачать
1 | 1
Фильмы 2013 [DVDrip, WEB-DLRip, HDrip] [ 1.46 GB ] Муви 43 / Movie 43 [2013 HDRip DUB лицензия] _Alessandro_ Скачать
1 | 0
Фильмы 2013 [DVDrip, WEB-DLRip, HDrip] [ 2.05 GB ] Муви 43 / Movie 43 [2013 ВDRip DUB лицензия + Goblin] yuivan Скачать
1 | 0
Фильмы (DVD фильмы) [ 5.66 GB ] Муви 43 / Movie 43 [2013 DVD9] R5 voovaz Скачать
1 | 0
Фильмы [HD 720p, 1080p] (Хороший звук DUB, MVO) [ 5.05 GB ] Муви 43 / Movie 43 [2013 BDRip 720p DUB лицензия] Ke$h@ Скачать
1 | 0

28-11-2019 20:33  

Отключить всю рекламу на сайте

    Дорогой пользователь! Огромная просьба, поблагодарите релизера, оцените раздачу и оставьте свои комментарий, если Вы скачали Муви 43 через торрент бесплатно! Внесите свою лепту в развитие PiratBit!
    Комментировать посты могут только пользователи прошедшие не сложную регистрацию
    Показать сообщения:    

    Муви 43 через торрент
    Скачать бесплатно Муви 43
    Муви 43 скачать торрент
    Муви 43 смотреть онлайн
    Cкачать фильм Муви 43 бесплатно
    Муви 43 скачать торрент в хорошем качестве
    Муви 43 смотреть онлайн бесплатно в хорошем качестве


    Вы не можете начинать темы
    Вы не можете отвечать на сообщения
    Вы не можете редактировать свои сообщения
    Вы не можете удалять свои сообщения
    Вы не можете голосовать в опросах
    Вы не можете прикреплять файлы к сообщениям
    Вы можете скачивать файлы