Marvel's Avengers Deluxe Edition (супер цена) 159р. Внимание количество ограничено!!!

2 сезон

iTunes

iTunes

1

iTunes

iTunes

iTunes

WEBRip

iTunes

30
pack

Новость дня

ВАЖНО

!!Акция!!

Alien_RageХит недели

RePack

Horizon Zero Dawn

ИГРА 18+

pack

RePack

jed

!!Акция!!

Alien_Rage

RePack

fifa19

RePack

Assassins Creed: Odyssey

RePack

NEED FOR SPEED™ PAYBACK

4 сезон

9 сезон

Бесстыжие 9 сезон

Все сериалы

все сериалы на PB.wtf

RePack

FAR CRY 5
  

Добро пожаловать, или Посторонним вход воспрещен (Элем Климов) [1964 г., комедия, семейный, DVDRip] piratbit.pw

Добро пожаловать, или Посторонним вход воспрещен через торрент piratbit.pw

Размер: 1.45 GB | Добавлен: 7 лет 6 мес. назад | Торрент скачан:178 раз
Скачать  

24-02-2013 17:41 Добро пожаловать, или Посторонним вход воспрещен Скачать торрент  

Добро пожаловать, или Посторонним вход воспрещен

Год выпуска: 1964
Страна: СССР
Жанр: комедия, семейный
Продолжительность: 01:10:10
Перевод: Не требуется

Режиссер: Элем Климов
Сценарий: Семен Лунгин, Илья Нусинов

Премьера в мире: 9 октября 1964



В ролях: Евгений Евстигнеев, Арина Алейникова, Илья Рутберг, Лидия Смирнова, Алексей Смирнов, Виктор Косых, Юра Бондаренко, Борис Демб, Сережа Кокорев, Игорь Крюков, Саша Машовец, Таня Прохорова, Люда Смеян, Слава Царев

Описание: Пионер Костя Иночкин, будучи в пионерском лагере, переплыл реку и оказался на запретной для посещений территории, за что и был изгнан его начальником товарищем Дыниным. Не желая доводить бабушку до инфаркта своим досрочным прибытием, мальчик тайно возвращается в лагерь, где пионеры так же тайно содержат его и предпринимают все меры, чтобы не состоялся родительский день. Ведь именно в этот день Костина бабушка заявится в лагерь…
* Съёмки фильма проходили в пионерском лагере, принадлежащем тресту «Воркутауголь», и расположенном в микрорайоне Алексин-Бор города Алексин Тульской области. В 70-х годах XX века на его территории были построены новые корпуса и от прежнего лагеря ничто не сохранилось.
* Во время съёмок фильма Евгений Евстигнеев, исполнитель роли товарища Дынина, научил детей играть в карты.
* Этот фильм — дипломная работа режиссёра Элема Климова.
* Фильм мог не выйти в широкий прокат, так как цензура посчитала, что бабушка на портрете (сцена «похорон» бабушки Иночкина) очень уж похожа на товарища Хрущёва. Да и завуалированные насмешки над кукурузой как царицей полей сыграли свою роль. Однако по благоприятному стечению обстоятельств фильм увидел сам Никита Сергеевич, и тот ему очень понравился.
* Роль Кости Иночкина прославила на всю страну тринадцатилетнего Витю Косых (потом он сыграет Даньку в «Неуловимых мстителях»). Ассистенты Климова нашли его в обычной школе, куда пришли за ребятами, которые умеют плавать.
*Съёмки «Добро пожаловать…» были в самом разгаре, когда картину попытались закрыть. В съёмочную группу пришла телеграмма от дирекции «Мосфильма» с требованием свернуть все работы и возвращаться из экспедиции в Москву. И лишь мудрость директора съёмочной группы, который сказал: «А мы этой телеграммы не получали», позволила режиссёру Элему Климову закончить картину.
Качество: DVDRip - AVC
Формат: MP4
Видео кодек: AVC
Аудио кодек: AC3
Видео: 720x520, (4:3), 25,000 кадров/сек, 2646 Кбит/сек, 0.283 бит/сек
Аудио#1: 48,0 КГц, AC3, 6 каналов, 192 Кбит/сек
Аудио#2: 48,0 КГц, AC3, 2 канала, 96,0 Кбит/сек
скриншот  скриншот  скриншот  скриншот  скриншот  скриншот  скриншот  скриншот  скриншот  скриншот  скриншот  

Общее
Полное имя : D:загрузкиДобро пожаловать или посторонним вход воспрещён.mp4
Формат : MPEG-4
Профиль формата : Base Media / Version 2
Идентификатор кодека : mp42
Размер файла : 1,45 Гбайт
Продолжительность : 1 ч. 10 м.
Режим общего битрейта : Переменный
Общий поток : 2949 Кбит/сек
Дата кодирования : UTC 2007-09-07 17:47:00
Дата пометки : UTC 2007-09-08 00:10:04

Видео
Идентификатор : 1
Формат : AVC
Формат/Информация : Advanced Video Codec
Профиль формата : Main@L3.0
Параметр CABAC формата : Да
Параметр ReFrames формата : 3 кадра
Идентификатор кодека : avc1
Идентификатор кодека/Информация : Advanced Video Coding
Продолжительность : 1 ч. 10 м.
Вид битрейта : Переменный
Битрейт : 2646 Кбит/сек
Максимальный битрейт : 13,2 Мбит/сек
Ширина : 720 пикселей
Высота : 520 пикселей
Соотношение сторон : 1,385
Режим частоты кадров : Постоянный
Частота кадров : 25,000 кадров/сек
Стандарт вещания : PAL
Цветовое пространство : YUV
Субдискретизация насыщенности : 4:2:0
Битовая глубина : 8 бит
Тип развёртки : Прогрессивная
Бит/(Пиксели*Кадры) : 0.283
Размер потока : 1,30 Гбайт (90%)
Язык : English
Дата кодирования : UTC 2007-09-07 17:47:00
Дата пометки : UTC 2007-09-08 00:10:04

Аудио #1
Идентификатор : 2
Формат : AAC
Формат/Информация : Advanced Audio Codec
Профиль формата : HE-AAC / LC
Идентификатор кодека : 40
Продолжительность : 1 ч. 10 м.
Вид битрейта : Переменный
Битрейт : 199 Кбит/сек
Максимальный битрейт : 296 Кбит/сек
Каналы : 6 каналов
Расположение каналов : Front: L C R, Side: L R, LFE
Частота : 48,0 КГц / 24,0 КГц
Метод сжатия : С потерями
Размер потока : 100,0 Мбайт (7%)
Язык : English
Дата кодирования : UTC 2007-09-07 17:47:00
Дата пометки : UTC 2007-09-08 00:10:04

Аудио #2
Идентификатор : 3
Формат : AAC
Формат/Информация : Advanced Audio Codec
Профиль формата : HE-AAC / LC
Идентификатор кодека : 40
Продолжительность : 1 ч. 10 м.
Вид битрейта : Переменный
Битрейт : 96,0 Кбит/сек
Максимальный битрейт : 137 Кбит/сек
Каналы : 2 канала
Расположение каналов : Front: L R
Частота : 48,0 КГц / 24,0 КГц
Метод сжатия : С потерями
Размер потока : 48,4 Мбайт (3%)
Язык : English
Дата кодирования : UTC 2007-09-07 17:47:00
Дата пометки : UTC 2007-09-08 00:10:04

В релизе 2 аудиодороги,если у Вас стерео и при воспроизведении слышен гул,переключаем на дорогу с двумя каналами.
piratbit.pw



Скачать Добро пожаловать, или Посторонним вход воспрещен через торрент http://pic.kartinco.top/images/2/8r1ai7tv96.jpg Скачать фильм Добро пожаловать, или Посторонним вход воспрещен через торрент бесплантно в хорошем качестве Описание: Пионер Костя Иночкин, будучи в пионерском лагере, переплыл реку и оказался на запретной для посещений территории, за что и был ... 10 10 12
Info! Золотая раздача, скачанное не засчитывается.
Торрент: Зарегистрирован [2013-02-24 17:41] · скачан: 178 раз
Статус: √ проверено
Размер: 1.45 GB
Как cкачать? Как скачать Добро пожаловать, или Посторонним вход воспрещен через торрент | qTorrent

28-11-2019 20:33  

Отключить всю рекламу на сайте

    Дорогой пользователь! Огромная просьба, поблагодарите релизера, оцените раздачу и оставьте свои комментарий, если Вы скачали Добро пожаловать, или Посторонним вход воспрещен через торрент бесплатно! Внесите свою лепту в развитие PiratBit!
    Комментировать посты могут только пользователи прошедшие не сложную регистрацию
    Показать сообщения:    

    Добро пожаловать, или Посторонним вход воспрещен через торрент
    Скачать бесплатно Добро пожаловать, или Посторонним вход воспрещен
    Добро пожаловать, или Посторонним вход воспрещен скачать торрент
    Добро пожаловать, или Посторонним вход воспрещен смотреть онлайн
    Cкачать фильм Добро пожаловать, или Посторонним вход воспрещен бесплатно
    Добро пожаловать, или Посторонним вход воспрещен скачать торрент в хорошем качестве
    Добро пожаловать, или Посторонним вход воспрещен смотреть онлайн бесплатно в хорошем качестве


    Вы не можете начинать темы
    Вы не можете отвечать на сообщения
    Вы не можете редактировать свои сообщения
    Вы не можете удалять свои сообщения
    Вы не можете голосовать в опросах
    Вы не можете прикреплять файлы к сообщениям
    Вы можете скачивать файлы