1 сезон

1 сезон

iTunes

1

КиноПоиск HD

Кинопоиск HD

iTunes

13

1 сезон

RePack

30

Ultimate

ВАЖНО

ИГРА 18+

pack

RePack

MK11
pack

Легкие деньги

RePack

jed

RePack

fifa19

RePack

RDR2

RePack

NEED FOR SPEED™ PAYBACK

4 сезон

9 сезон

Бесстыжие 9 сезон

Все сериалы

все сериалы на PB.wtf

RePack

FAR CRY 5
  
Magnet ссылка

Новый Свет / The New World (Терренс Малик) [2005 г., драма, мелодрама, биография, история,HDRip, AVO одноголосый (Сербин)] piratbit.pw

Новый Свет через торрент piratbit.pw

Размер: 2.15 GB | Добавлен: 8 лет 2 мес. назад | Торрент скачан:33 раза
Скачать  

18-02-2013 07:38 Новый Свет Скачать торрент  

Год выпуска: 2005
Страна: США, Великобритания
Жанр: драма, мелодрама, биография, история
Продолжительность: 02:51:50
Перевод: Авторский одноголосый (Сербин)

Режиссер: Терренс Малик
Продюссер: Сара Грин, Иван Бесс, Тоби Эммерих
Сценарий: Терренс Малик

Бюджет: $30 000 000
Премьера в мире: 25 декабря 2005



В ролях: Колин Фаррелл, Кристиан Бэйл, К’Орианка Килчер, Кристофер Пламмер, Уэс Стьюди, Дэвид Тьюлис, Ноа Тейлор, Бен Чаплин, Джонатан Прайс, Аугуст Шелленберг

Описание: Действие картины разворачивается в Америке XVII века, в поселении Джеймстаун. Главные герои фильма — исследователь Джон Смит и молодая индейская принцесса Покахонтас, которые полюбили друг друга, несмотря на то, что между индейцами и британцами разгорается серьезный политический конфликт...

Качество: HDRip
Формат: MKV
Видео кодек: H.264
Аудио кодек: AC3
Видео: 720x 304 (2,35:1),23,976fps, AVC MPEG-4 (H.264), ~1019 kbps avg, 0.194 bit/pixel
Аудио#1: 48 kHz, AC3 Dolby Digital, 3/2 (L,C,R,l,r) + LFE ch, ~384 kbps avg AVO (Ю. Сербин)
Аудио#2: 48 kHz, AC3 Dolby Digital, 3/2 (L,C,R,l,r) + LFE ch, ~384 kbps avg ENG
Автор рипа:








Общее
Уникальный идентификатор : 239139191211876411471066659570802635319 (0xB3E8886DA6CB8AE78A7953360E6E3237)
Полное имя : H:Novij svet .mkv
Формат : Matroska
Версия формата : Version 2
Размер файла : 2,15 Гбайт
Продолжительность : 2 ч. 51 м.
Общий поток : 1788 Кбит/сек
Дата кодирования : UTC 2013-02-18 05:58:57
Программа кодирования : mkvmerge v4.4.0 ('Die Wiederkehr') сборка от Oct 31 2010 21:52:48
Библиотека кодирования : libebml v1.0.0 + libmatroska v1.0.0

Видео
Идентификатор : 1
Формат : AVC
Формат/Информация : Advanced Video Codec
Профиль формата : High@L4.1
Параметр CABAC формата : Да
Параметр ReFrames формата : 8 кадров
Режим смешивания : Header stripping
Идентификатор кодека : V_MPEG4/ISO/AVC
Продолжительность : 2 ч. 51 м.
Битрейт : 1019 Кбит/сек
Ширина : 720 пикселей
Высота : 304 пикселя
Соотношение сторон : 2,35:1
Частота кадров : 23,976 кадра/сек
Цветовое пространство : YUV
Субдискретизация насыщенности : 4:2:0
Битовая глубина : 8 бит
Тип развёртки : Прогрессивная
Бит/(Пиксели*Кадры) : 0.194
Размер потока : 1,18 Гбайт (55%)
Библиотека кодирования : x264 core 125 r2200 999b753
Настройки программы : cabac=1 / ref=8 / deblock=1:-1:-1 / analyse=0x3:0x133 / me=umh / subme=7 / psy=1 / psy_rd=1.00:0.20 / mixed_ref=1 / me_range=16 / chroma_me=1 / trellis=2 / 8x8dct=1 / cqm=0 / deadzone=21,11 / fast_pskip=0 / chroma_qp_offset=-3 / threads=6 / lookahead_threads=1 / sliced_threads=0 / nr=0 / decimate=0 / interlaced=0 / bluray_compat=0 / constrained_intra=0 / bframes=4 / b_pyramid=2 / b_adapt=2 / b_bias=0 / direct=3 / weightb=1 / open_gop=0 / weightp=2 / keyint=250 / keyint_min=23 / scenecut=40 / intra_refresh=0 / rc_lookahead=50 / rc=2pass / mbtree=1 / bitrate=1019 / ratetol=1.0 / qcomp=0.60 / qpmin=0 / qpmax=69 / qpstep=4 / cplxblur=20.0 / qblur=0.5 / ip_ratio=1.40 / aq=1:1.00
Default : Да
Forced : Нет

Аудио #1
Идентификатор : 2
Формат : AC-3
Формат/Информация : Audio Coding 3
Расширение режима : CM (complete main)
Параметр Endianness формата : Big
Режим смешивания : Header stripping
Идентификатор кодека : A_AC3
Продолжительность : 2 ч. 51 м.
Вид битрейта : Постоянный
Битрейт : 384 Кбит/сек
Каналы : 6 каналов
Расположение каналов : Front: L C R, Side: L R, LFE
Частота : 48,0 КГц
Битовая глубина : 16 бит
Метод сжатия : С потерями
Размер потока : 472 Мбайт (21%)
Язык : Russian
Default : Да
Forced : Нет

Аудио #2
Идентификатор : 3
Формат : AC-3
Формат/Информация : Audio Coding 3
Расширение режима : CM (complete main)
Параметр Endianness формата : Big
Режим смешивания : Header stripping
Идентификатор кодека : A_AC3
Продолжительность : 2 ч. 51 м.
Вид битрейта : Постоянный
Битрейт : 384 Кбит/сек
Каналы : 6 каналов
Расположение каналов : Front: L C R, Side: L R, LFE
Частота : 48,0 КГц
Битовая глубина : 16 бит
Метод сжатия : С потерями
Размер потока : 472 Мбайт (21%)
Язык : English
Default : Нет
Forced : Нет


Новый Свет скачать торрент


piratbit.pw



Скачать Новый Свет через торрент https://pic.kartinco.top/images/1/7o9p3vt2gb.png Скачать фильм Новый Свет через торрент бесплантно в хорошем качестве Описание: Действие картины разворачивается в Америке XVII века, в поселении Джеймстаун. Главные герои фильма — исследователь Джон Смит и ... 5 10 1
Info! Золотая раздача, скачанное не засчитывается.
Торрент: Зарегистрирован [2013-02-18 07:38] · скачан: 33 раз
Статус: √ проверено
Размер: 2.15 GB
Как cкачать? Как скачать Новый Свет через торрент | UTorrent

% Раздел Тема Автор DL S | L
Фильмы с авторской озвучкой [ 7.89 GB ] Новый Свет / The New World [2005 биография BDRip 720p от _denis_100 / NNNB] AVO + Original + Sub _denis_100 Скачать
1 | 0
Фильмы 2001-2005 [ 2.18 GB ] Новый свет / The New World [2005 биография история BDRip-AVC] [Extended Cut] rulya74 Скачать
1 | 0

28-11-2019 20:33  

Отключить всю рекламу на сайте

    Дорогой пользователь! Огромная просьба, поблагодарите релизера, оцените раздачу и оставьте свои комментарий, если Вы скачали Новый Свет через торрент бесплатно! Внесите свою лепту в развитие PiratBit!
    Комментировать посты могут только пользователи прошедшие не сложную регистрацию
    Показать сообщения:    

    Новый Свет через торрент
    Скачать бесплатно Новый Свет
    Новый Свет скачать торрент
    Новый Свет смотреть онлайн
    Cкачать фильм Новый Свет бесплатно
    Новый Свет скачать торрент в хорошем качестве
    Новый Свет смотреть онлайн бесплатно в хорошем качестве


    Вы не можете начинать темы
    Вы не можете отвечать на сообщения
    Вы не можете редактировать свои сообщения
    Вы не можете удалять свои сообщения
    Вы не можете голосовать в опросах
    Вы не можете прикреплять файлы к сообщениям
    Вы можете скачивать файлы