1 сезон

1 сезон

iTunes

1

iTunes

Кинопоиск HD

iTunes

13

1 сезон

RePack

30

Deluxe

ВАЖНО

ИГРА 18+

pack

RePack

MK11
pack

Легкие деньги

RePack

jed

RePack

fifa19

RePack

RDR2

RePack

NEED FOR SPEED™ PAYBACK

4 сезон

9 сезон

Бесстыжие 9 сезон

Все сериалы

все сериалы на PB.wtf

RePack

FAR CRY 5
  
Magnet ссылка

Стрелок / The Contractor (Джозеф Руснак) [2007 г., Боевик, триллер, драма, DVDRip-AVC, MVO] piratbit.pw

Стрелок через торрент piratbit.pw

Размер: 1.41 GB | Добавлен: 8 лет 2 мес. назад | Торрент скачан:167 раз
Скачать  

16-02-2013 16:35 Стрелок Скачать торрент  

Стрелок / The Contractor

Год выпуска: 2007
Страна: США, Великобритания, Болгария
Жанр: Боевик, триллер, драма
Продолжительность: 01:34:45
Перевод: Профессиональный многоголосый

Режиссер: Джозеф Руснак
Продюссер: Дэвид Болт, Руди Коэн, Рольф Дейл, Хенрик Хидтс, Виктория Лукас, Bobbie Rangelov
Сценарий: Роберт Форстер, Джошуа Майкл Штерн, Роберт Кац (рассказ), Andrй Farwagi (рассказ)

Бюджет: $18 000 000
Премьера в мире: 10.07.2007




В ролях: Уэсли Снайпс, Лена Хиди, Элайза Беннетт, Ральф Браун, Чарлз Дэнс, Джемма Джоунс, Айэйн Робертсон, Ричард Харрингтон, Райан МакКласки, Джон Стандинг, Станимир Стаматов, Милош Мирослав, Велизар Бинев, Николай Сотиров

Описание: Отставной стрелок Джеймс Дайл, живет на своем ранчо в штате Монтана. В свое время он был лучшим снайпером ЦРУ, принимавшим участие в самых сложных и засекреченных операциях.
К нему наведывается бывшее начальство, чтобы поручить последнее дело — устранить приговоренного к суду террориста в Лондоне, который даже в случае обвинительного приговора способен продолжать свою деятельность из-за стен тюрьмы. То, что было бы обычной миссией для снайпера, превращается в кошмар, поскольку цена проигрыша в этой игре — жизнь самого Дайла.

Качество: DVDRip-AVC
Формат: MKV
Видео кодек: MPEG-4 AVC
Аудио кодек: AC3
Видео: 720x400 (16:9), 25.000 fps, AVC (High@L3.1) ~1702 kbps avg, 0.236 bit/pixel
Аудио#1: 48 kHz, AC3 Dolby Digital,16 bits, 6 channels, ~448 kbps avg




Общее
Уникальный идентификатор : 250590784568124762787990725423703039149 (0xBC86079278A53C648C3A3B1712709CAD)
Полное имя : C:VideoStrelok.2007.DVDRip.mkv
Формат : Matroska
Версия формата : Version 2
Размер файла : 1,41 Гбайт
Продолжительность : 1 ч. 34 м.
Общий поток : 2133 Кбит/сек
Дата кодирования : UTC 2012-05-22 01:31:38
Программа кодирования : mkvmerge v5.0.1 ('Es ist Sommer') built on Nov 6 2011 16:23:40
Библиотека кодирования : libebml v1.2.2 + libmatroska v1.3.0

Видео
Идентификатор : 1
Формат : AVC
Формат/Информация : Advanced Video Codec
Профиль формата : High@L3.1
Параметр CABAC формата : Да
Параметр ReFrames формата : 4 кадра
Идентификатор кодека : V_MPEG4/ISO/AVC
Продолжительность : 1 ч. 34 м.
Битрейт : 1702 Кбит/сек
Ширина : 720 пикселей
Высота : 400 пикселей
Соотношение сторон : 16:9
Режим частоты кадров : Постоянный
Частота кадров : 25,000 кадров/сек
Цветовое пространство : YUV
Субдискретизация насыщенности : 4:2:0
Битовая глубина : 8 бит
Тип развёртки : Прогрессивная
Бит/(Пиксели*Кадры) : 0.236
Размер потока : 1,09 Гбайт (77%)
Библиотека кодирования : x264 core 119 r2106 07efeb4
Настройки программы : cabac=1 / ref=3 / deblock=1:0:0 / analyse=0x3:0x113 / me=hex / subme=7 / psy=1 / psy_rd=1.00:0.10 / mixed_ref=1 / me_range=16 / chroma_me=1 / trellis=1 / 8x8dct=1 / cqm=0 / deadzone=21,11 / fast_pskip=1 / chroma_qp_offset=-3 / threads=6 / sliced_threads=0 / nr=0 / decimate=1 / interlaced=0 / bluray_compat=0 / constrained_intra=0 / bframes=3 / b_pyramid=2 / b_adapt=1 / b_bias=0 / direct=1 / weightb=1 / open_gop=0 / weightp=2 / keyint=250 / keyint_min=25 / scenecut=40 / intra_refresh=0 / rc_lookahead=40 / rc=abr / mbtree=1 / bitrate=1702 / ratetol=1.0 / qcomp=0.60 / qpmin=0 / qpmax=69 / qpstep=4 / vbv_maxrate=17500 / vbv_bufsize=14000 / nal_hrd=none / ip_ratio=1.40 / aq=1:1.00
Default : Да
Forced : Нет

Аудио
Идентификатор : 2
Формат : AC-3
Формат/Информация : Audio Coding 3
Расширение режима : CM (complete main)
Параметр Endianness формата : Big
Идентификатор кодека : A_AC3
Продолжительность : 1 ч. 34 м.
Вид битрейта : Постоянный
Битрейт : 448 Кбит/сек
Каналы : 6 каналов
Расположение каналов : Front: L C R, Side: L R, LFE
Частота : 48,0 КГц
Битовая глубина : 16 бит
Метод сжатия : С потерями
Размер потока : 304 Мбайт (21%)
Default : Да
Forced : Нет

piratbit.pw



Скачать Стрелок через торрент http://i53.fastpic.ru/big/2013/0216/77/767f8deda89ab09e50009acf8ae65977.jpg Скачать фильм Стрелок через торрент бесплантно в хорошем качестве Описание: Отставной стрелок Джеймс Дайл, живет на своем ранчо в штате Монтана. В свое время он был лучшим снайпером ЦРУ, принимавшим ... 9.9 10 7
Info! Золотая раздача, скачанное не засчитывается.
Торрент: Зарегистрирован [2013-02-16 16:35] · скачан: 167 раз
Статус: √ проверено
Размер: 1.41 GB
Как cкачать? Как скачать Стрелок через торрент | UTorrent

% Раздел Тема Автор DL S | L
Фильмы (HD 720p, 1080p) (48-60 fps) [ 4.4 GB ] Стрелок / The Contractor [2007 BDRip 720p] (60 fps] MVO + Original Eng slaventi-69 Скачать
1 | 0

28-11-2019 20:33  

Отключить всю рекламу на сайте

16-02-2013 18:45 Стрелок Скачать торрент  

Отписались бы как фильм! А то смотрят и не высказывают мнение))piratbit.pw



    Дорогой пользователь! Огромная просьба, поблагодарите релизера, оцените раздачу и оставьте свои комментарий, если Вы скачали Стрелок через торрент бесплатно! Внесите свою лепту в развитие PiratBit!
    Комментировать посты могут только пользователи прошедшие не сложную регистрацию
    Показать сообщения:    

    Стрелок через торрент
    Скачать бесплатно Стрелок
    Стрелок скачать торрент
    Стрелок смотреть онлайн
    Cкачать фильм Стрелок бесплатно
    Стрелок скачать торрент в хорошем качестве
    Стрелок смотреть онлайн бесплатно в хорошем качестве


    Вы не можете начинать темы
    Вы не можете отвечать на сообщения
    Вы не можете редактировать свои сообщения
    Вы не можете удалять свои сообщения
    Вы не можете голосовать в опросах
    Вы не можете прикреплять файлы к сообщениям
    Вы можете скачивать файлы