новый адрес
Ссылка на приватное зеркало всего за 1$. Внимание количество ограничено!!!

iTunes

1+1

iTunes

мы

WEB-DL

1

iTunes

Чернобыль

iTunes

Ральф против интернета

Лицензия

ПШазам

Лицензия

Оно 2

Лицензия

30
pack

Вам бонус

ВАЖНО

!!Акция!!

Alien_RageХит недели

RePack

Resident Evil 21

ИГРА 18+

pack

RePack

jed

!!Акция!!

Alien_Rage

RePack

fifa19

RePack

Assassins Creed: Odyssey

RePack

NEED FOR SPEED™ PAYBACK

3 сезон

9 сезон

Бесстыжие 9 сезон

Все сериалы

все сериалы на PB.wtf

RePack

FAR CRY 5
Ребята, катастрофически не хватает 1900р. для оплаты серверов за Октябрь (всвязи с блокировками трафик упал в 3 раза), 1-2р., выручайте.
  

Эта замечательная жизнь / It's a Wonderful Life (Фрэнк Капра) [1946 г., фэнтези, драма, семейный, BDRip, MVO, лицензия] (цветная версия) piratbit.pw

Эта замечательная жизнь через торрент piratbit.pw

Размер: 2.17 GB | Добавлен: 6 лет 9 мес. назад | Торрент скачан:84 раза
Скачать  

16-02-2013 16:29 Эта замечательная жизнь Скачать торрент  

Эта замечательная жизнь / It's a Wonderful Life
(цветная версия)


Год выпуска: 1946
Страна: США
Жанр: фэнтези, драма, семейный
Продолжительность: 02:10:35
Перевод: Профессиональный многоголосый, Лицензия

Режиссер: Фрэнк Капра
Продюссер: Фрэнк Капра
Сценарий: Фрэнсис Гудрич, Альберт Хэкетт, Фрэнк Капра

Бюджет: $3 180 000
Премьера в мире: 20 декабря 1946



В ролях: Джеймс Стюарт, Донна Рид, Лайонел Бэрримор, Томас Митчелл, Генри Треверс, Бьюла Бонди, Фрэнк Фэйлен, Уорд Бонд, Глория Грэм, Х.Б. Уорнер

Описание: Джордж Бейли, владелец кредитной компании в выдуманном американском городке Бедфорд Фоллс, честный, отзывчивый, любящий муж и отец, подавлен свалившимися на него невзгодами и подумывает о самоубийстве.

Очевидно, что человек, отказывающийся от самого большого дара Бога — жизни — нуждается в помощи ангела-хранителя. И Небеса отправляют ему на выручку Кларенса, единственного свободного на тот момент Ангела Второго Класса, приятного, доброго, но неопытного, еще даже не заслужившего крылья.

Если он сделает свою работу хорошо и сможет отговорить Джорджа от смертного греха, он получит крылья. А времени у него почти не осталось… Кларенс находит единственно правильное решение — показать Джорджу мир, в котором тот не существует.

Доп. информация: * С 70-ых годов в США фильм регулярно показывают по ведущим телеканалам в рождественский сочельник.
* В 2004 году канал BBC выбирал лучшие фильмы, которые не получили «Оскара». Фильм «Эта прекрасная жизнь» попал на второе место.

Качество: BDRip
Формат: AVI
Видео кодек: XviD
Аудио кодек: AC3
Видео: 720x544,(4:3),XviD,23,976 кадр/сек,1923 Кбит/сек,0.205 бит/сек
Аудио#1: 48,0 КГц,AC-3,6 каналов,448 Кбит/сек (MVO)
скриншот  скриншот  скриншот  скриншот  скриншот  скриншот  скриншот  скриншот  

Общее
Полное имя : D:загрузкиWonderful_Life.avi
Формат : AVI
Формат/Информация : Audio Video Interleave
Профиль формата : OpenDML
Размер файла : 2,17 Гбайт
Продолжительность : 2 ч. 10 м.
Общий поток : 2383 Кбит/сек
Программа кодирования : VirtualDubMod 1.5.10.2 (build 2540/release)
Библиотека кодирования : VirtualDubMod build 2540/release

Видео
Идентификатор : 0
Формат : MPEG-4 Visual
Профиль формата : Advanced Simple@L5
Параметр BVOP формата : 2
Параметр QPel формата : Нет
Параметр GMC формата : Без точки перехода
Параметр матрицы формата : Выборочная
Режим смешивания : Сжатый битовый поток
Идентификатор кодека : XVID
Идентификатор кодека/Подсказка : XviD
Продолжительность : 2 ч. 10 м.
Битрейт : 1923 Кбит/сек
Ширина : 720 пикселей
Высота : 544 пикселя
Соотношение сторон : 4:3
Частота кадров : 23,976 кадра/сек
Цветовое пространство : YUV
Субдискретизация насыщенности : 4:2:0
Битовая глубина : 8 бит
Тип развёртки : Прогрессивная
Метод сжатия : С потерями
Бит/(Пиксели*Кадры) : 0.205
Размер потока : 1,75 Гбайт (81%)
Библиотека кодирования : XviD 1.2.1 (UTC 2008-12-04)

Аудио
Идентификатор : 1
Формат : AC-3
Формат/Информация : Audio Coding 3
Расширение режима : CM (complete main)
Параметр Endianness формата : Big
Идентификатор кодека : 2000
Продолжительность : 2 ч. 10 м.
Вид битрейта : Постоянный
Битрейт : 448 Кбит/сек
Каналы : 6 каналов
Расположение каналов : Front: L C R, Side: L R, LFE
Частота : 48,0 КГц
Битовая глубина : 16 бит
Метод сжатия : С потерями
Размер потока : 418 Мбайт (19%)
Выравнивание : Разделение по промежуткам
Продолжительность промежутка : 42 мс. (1,00 видеокадр)
Время предзагрузки промежутка : 500 мс.

piratbit.pw



Скачать Эта замечательная жизнь через торрент http://pic.kartinco.top/images/1/n7xfxq5isl.jpg Скачать фильм Эта замечательная жизнь через торрент бесплантно в хорошем качестве Описание: Джордж Бейли, владелец кредитной компании в выдуманном американском городке Бедфорд Фоллс, честный, отзывчивый, любящий муж и ... 10 10 1
Info! Золотая раздача, скачанное не засчитывается.
Торрент: Зарегистрирован [2013-02-16 16:29] · скачан: 84 раз
Статус: √ проверено
Размер: 2.17 GB
Как cкачать? Как скачать Эта замечательная жизнь через торрент | qTorrent

28-11-2019 20:33  

Отключить всю рекламу на сайте

    Дорогой пользователь! Огромная просьба, поблагодарите релизера, оцените раздачу и оставьте свои комментарий, если Вы скачали Эта замечательная жизнь через торрент бесплатно! Внесите свою лепту в развитие PiratBit!
    Комментировать посты могут только пользователи прошедшие не сложную регистрацию
    Показать сообщения:    

    Эта замечательная жизнь через торрент
    Скачать бесплатно Эта замечательная жизнь
    Эта замечательная жизнь скачать торрент
    Эта замечательная жизнь смотреть онлайн
    Cкачать фильм Эта замечательная жизнь бесплатно
    Эта замечательная жизнь скачать торрент в хорошем качестве
    Эта замечательная жизнь смотреть онлайн бесплатно в хорошем качестве


    Вы не можете начинать темы
    Вы не можете отвечать на сообщения
    Вы не можете редактировать свои сообщения
    Вы не можете удалять свои сообщения
    Вы не можете голосовать в опросах
    Вы не можете прикреплять файлы к сообщениям
    Вы можете скачивать файлы