Мега распродажа FORZA HORIZON 4 ULTIMATE+ВСЕ DLC+ОНЛАЙН всего за 499р. 349 руб. (супер цена). Внимание количество ограничено!!!

iTunes

1+1

iTunes

мы

iTunes

1

1 сезон

Чернобыль

1 сезон

Ральф против интернета

Лицензия

ПШазам

8 сезон

Игра престолов

Лицензия

30
pack

ВАЖНО

!!Акция!!

Alien_RageХит недели

RePack

Resident Evil 21

ИГРА 18+

pack

RePack

Metro:Exodus

!!Акция!!

Alien_Rage

RePack

fifa19

RePack

Assassins Creed: Odyssey

RePack

NEED FOR SPEED™ PAYBACK

3 сезон

9 сезон

Бесстыжие 9 сезон

Все сериалы

все сериалы на PB.wtf

RePack

FAR CRY 5
Ребята, катастрофически не хватает 2730р. для оплаты серверов за ИЮНЬ (всвязи с блокировками трафик упал в 3 раза), 1-2р., выручайте.
  

Ворчун / Il Burbero (Франко Кастеллано, Джузеппе Моччиа) [1986 г., комедия, DVDRip, MVO, лицензия] piratbit.pw

Ворчун через торрент piratbit.pw

Размер: 2.19 GB | Добавлен: 6 лет 5 мес. назад | Торрент скачан:89 раз
Скачать  

14-02-2013 10:40 Ворчун Скачать торрент  

Ворчун / Il Burbero

Год выпуска: 1986
Страна: Италия
Жанр: комедия
Продолжительность: 1:40:20
Перевод: Профессиональный, многоголосый (закадровый) + Профессиональный, двухголосый (закадровый) + Одноголосый (А.Мудров)

Режиссер: Франко Кастеллано, Джузеппе Моччиа
Продюссер: Марио Чекки Гори, Витторио Чекки Гори, Лучиано Луна
Сценарий: Франко Кастеллано, Джузеппе Моччиа

Премьера в мире: 19 декабря 1986



В ролях: Адриано Челентано , Дебра Фэйер , Жан Сорель , Маттиа Сбража , Анджела Финоккьяро , Пеппе Ланцетта , Перси Хоган

Описание: Он — адвокат, который летит из Нью-Йорка во Флоренцию, разочарованный временной неудачей в делах, но преисполненный надежд на успешное окончание очередной тяжбы. Она — официантка кафе, итальянка по отцовской линии, летит по тому же маршруту, откликнувшись на телефонный звонок мужа. Пикантность ситуации была в том, что адвокат имел два билета на самолет, хотя летел один, а официантка не имела ни одного, ибо не заказывала проезд заранее. Адвокат дал слабинку и уступил лишний билет. Так он и дал себя втянуть в интригу стоимостью 15 миллиардов…

Качество: DVDRip
Формат: AVI
Видео кодек: XviD
Аудио кодек: AC3
Видео: 720x400 (1.80:1), 25 fps, 2326 kbps 0.33 bit/pixel
Аудио#1: 48 kHz, AC3, 2/0 (L,R) ch,192.00 kbps (MVO)
Аудио#2: 48 kHz, AC3, 2/0 (L,R) ch,192.00 kbps (DVO)
Аудио#3: 48 kHz, AC3, 2/0 (L,R) ch,192.00 kbps (AVO) (А.Мудров)
Аудио#4: 48 kHz, AC3, 2/0 (L,R) ch,192.00 kbps (Оригинал)
скриншот  скриншот  скриншот  скриншот  скриншот  скриншот  

Общее
Полное имя : D:загрузкиvorchun_2.18.avi
Формат : AVI
Формат/Информация : Audio Video Interleave
Профиль формата : OpenDML
Размер файла : 2,19 Гбайт
Продолжительность : 1 ч. 40 м.
Общий поток : 3124 Кбит/сек
Программа кодирования : VirtualDubMod 1.5.10.2 (build 2540/release)
Библиотека кодирования : VirtualDubMod build 2540/release

Видео
Идентификатор : 0
Формат : MPEG-4 Visual
Профиль формата : Advanced Simple@L5
Параметр BVOP формата : 2
Параметр QPel формата : Нет
Параметр GMC формата : Без точки перехода
Параметр матрицы формата : Выборочная
Идентификатор кодека : XVID
Идентификатор кодека/Подсказка : XviD
Продолжительность : 1 ч. 40 м.
Битрейт : 2326 Кбит/сек
Ширина : 720 пикселей
Высота : 400 пикселей
Соотношение сторон : 16:9
Частота кадров : 25,000 кадров/сек
Цветовое пространство : YUV
Субдискретизация насыщенности : 4:2:0
Битовая глубина : 8 бит
Тип развёртки : Прогрессивная
Метод сжатия : С потерями
Бит/(Пиксели*Кадры) : 0.323
Размер потока : 1,63 Гбайт (74%)
Библиотека кодирования : XviD 1.2.1 (UTC 2008-12-04)

Аудио #1
Идентификатор : 1
Формат : AC-3
Формат/Информация : Audio Coding 3
Расширение режима : CM (complete main)
Параметр Endianness формата : Big
Идентификатор кодека : 2000
Продолжительность : 1 ч. 40 м.
Вид битрейта : Постоянный
Битрейт : 192 Кбит/сек
Каналы : 2 канала
Расположение каналов : Front: L R
Частота : 48,0 КГц
Битовая глубина : 16 бит
Метод сжатия : С потерями
Размер потока : 138 Мбайт (6%)
Выравнивание : Разделение по промежуткам
Продолжительность промежутка : 40 мс. (1,00 видеокадр)
Время предзагрузки промежутка : 500 мс.

Аудио #2
Идентификатор : 2
Формат : AC-3
Формат/Информация : Audio Coding 3
Расширение режима : CM (complete main)
Параметр Endianness формата : Big
Идентификатор кодека : 2000
Продолжительность : 1 ч. 40 м.
Вид битрейта : Постоянный
Битрейт : 192 Кбит/сек
Каналы : 2 канала
Расположение каналов : Front: L R
Частота : 48,0 КГц
Битовая глубина : 16 бит
Метод сжатия : С потерями
Размер потока : 138 Мбайт (6%)
Выравнивание : Разделение по промежуткам
Продолжительность промежутка : 40 мс. (1,00 видеокадр)
Время предзагрузки промежутка : 500 мс.

Аудио #3
Идентификатор : 3
Формат : AC-3
Формат/Информация : Audio Coding 3
Расширение режима : CM (complete main)
Параметр Endianness формата : Big
Идентификатор кодека : 2000
Продолжительность : 1 ч. 40 м.
Вид битрейта : Постоянный
Битрейт : 192 Кбит/сек
Каналы : 2 канала
Расположение каналов : Front: L R
Частота : 48,0 КГц
Битовая глубина : 16 бит
Метод сжатия : С потерями
Размер потока : 138 Мбайт (6%)
Выравнивание : Разделение по промежуткам
Продолжительность промежутка : 40 мс. (1,00 видеокадр)
Время предзагрузки промежутка : 500 мс.

Аудио #4
Идентификатор : 4
Формат : AC-3
Формат/Информация : Audio Coding 3
Расширение режима : CM (complete main)
Параметр Endianness формата : Big
Идентификатор кодека : 2000
Продолжительность : 1 ч. 40 м.
Вид битрейта : Постоянный
Битрейт : 192 Кбит/сек
Каналы : 2 канала
Расположение каналов : Front: L R
Частота : 48,0 КГц
Битовая глубина : 16 бит
Метод сжатия : С потерями
Размер потока : 138 Мбайт (6%)
Выравнивание : Разделение по промежуткам
Продолжительность промежутка : 40 мс. (1,00 видеокадр)
Время предзагрузки промежутка : 500 мс.

piratbit.pw



Скачать Ворчун через торрент http://pic.kartinco.top/images/1/gurzputvf5.png Скачать фильм Ворчун через торрент бесплантно в хорошем качестве Описание: Он — адвокат, который летит из Нью-Йорка во Флоренцию, разочарованный временной неудачей в делах, но преисполненный надежд на ... 10 10 2
Info! Золотая раздача, скачанное не засчитывается.
Торрент: Зарегистрирован [2013-02-14 10:40] · скачан: 89 раз
Статус: √ проверено
Размер: 2.19 GB
Как cкачать? Как скачать Ворчун через торрент | qTorrent

% Раздел Тема Автор DL S | L
Фильмы до 2000 г. [ 2.9 GB ] Ворчун / Il burbero [1986 г BDRip-AVC] MVO DVO AVO koenig Скачать
1 | 0


>> Регистрируемся здесь <<






Отзывы и комментарии о схеме читаем и пишем здесь: ---> Отзывы и комментарии о схеме

Новые благодарочки в телеграм довольных пользователей:
скриншот   скриншот   скриншот   скриншот   скриншот
    Дорогой пользователь! Огромная просьба, поблагодарите релизера, оцените раздачу и оставьте свои комментарий, если Вы скачали Ворчун через торрент бесплатно! Внесите свою лепту в развитие PiratBit!
    Комментировать посты могут только пользователи прошедшие не сложную регистрацию
    Показать сообщения:    

    Ворчун через торрент
    Скачать бесплатно Ворчун
    Ворчун скачать торрент
    Ворчун смотреть онлайн
    Cкачать фильм Ворчун бесплатно
    Ворчун скачать торрент в хорошем качестве
    Ворчун смотреть онлайн бесплатно в хорошем качестве


    Вы не можете начинать темы
    Вы не можете отвечать на сообщения
    Вы не можете редактировать свои сообщения
    Вы не можете удалять свои сообщения
    Вы не можете голосовать в опросах
    Вы не можете прикреплять файлы к сообщениям
    Вы можете скачивать файлы