Мега распродажа FORZA HORIZON 4 ULTIMATE+ВСЕ DLC+ОНЛАЙН всего за 499р. 349 руб. (супер цена). Внимание количество ограничено!!!

iTunes

1+1

iTunes

мы

iTunes

1

1 сезон

Чернобыль

1 сезон

Ральф против интернета

Лицензия

ПШазам

8 сезон

Игра престолов

Лицензия

30
pack

ВАЖНО

!!Акция!!

Alien_RageХит недели

RePack

Resident Evil 21

ИГРА 18+

pack

RePack

Metro:Exodus

!!Акция!!

Alien_Rage

RePack

fifa19

RePack

Assassins Creed: Odyssey

RePack

NEED FOR SPEED™ PAYBACK

3 сезон

9 сезон

Бесстыжие 9 сезон

Все сериалы

все сериалы на PB.wtf

RePack

FAR CRY 5
Ребята, катастрофически не хватает 2730р. для оплаты серверов за ИЮНЬ (всвязи с блокировками трафик упал в 3 раза), 1-2р., выручайте.
  

Туз / Asso (Франко Кастеллано, Джузеппе Моччиа) [1981 г., комедия, DVDRip, Профессиональный,многоголосый] piratbit.pw

Туз через торрент piratbit.pw

Размер: 1.62 GB | Добавлен: 6 лет 5 мес. назад | Торрент скачан:167 раз
Скачать  

13-02-2013 16:01 Туз Скачать торрент  

Туз / Asso

Год выпуска: 1981
Страна: Италия
Жанр: комедия
Продолжительность: 01:30:50
Перевод: Двухголосый (закадровый) + Профессиональный, многоголосый (закадровый) + Одноголосый (А.Мудров)

Режиссер: Франко Кастеллано, Джузеппе Моччиа
Продюссер: Марио Чекки Гори, Витторио Чекки Гори
Сценарий: Франко Кастеллано, Джузеппе Моччиа

Премьера в мире: 16 апреля 1981



В ролях: Адриано Челентано, Эдвиже Фенеш, Ренато Сальватори, Сильва Кошина, Пиппо Сантонастасо, Джанни Маньи, Мемо Диттоньо, Элизабета Вивиани, Дино Кассио, Сандро Гиани

Описание: Профессиональный карточный шулер по кличке Туз накануне свадьбы объявляет о своем решении завязать. Но неожиданно оказывается втянутым в крупную игру с Марсельцем. Молодая жена отпускает его на эту игру. Отчаянно блефуя, он срывает банк, но игра продолжается.

На него начинается охота и его убивает наемный убийца, после чего Туз превращается в… привидение, которое не может видеть никто, кроме его жены. Обретя таким трагическим образом новые возможности, он старается пристроить свою вдову и отомстить…

Знаете ли вы, что... В начале фильма герой Челентано разъезжает на мотоцикле «Днепр»

Качество: DVDRip
Формат: AVI
Видео кодек: XviD
Аудио кодек: AC3
Видео: 720x432 (1.67:1), 25 fps, 1695 kbps
Аудио#1: 48 kHz, AC3 2/0 ch, 256.00 kbps (DVO)
Аудио#2: 44.1 kHz, MP3 2/0 ch, 128.00 kbps (MVO)
Аудио#3: 44.1 kHz, MP3 2/0 ch, 192.00 kbps (AVO)(А.Мудров)
Аудио#4: 48 kHz, AC3 2/0 ch, 256.00 kbps (Оригинал)
скриншот  скриншот  скриншот  скриншот  скриншот  скриншот  скриншот  скриншот  скриншот  

Общее
Полное имя : D:загрузкиAsso.avi
Формат : AVI
Формат/Информация : Audio Video Interleave
Размер файла : 1,62 Гбайт
Продолжительность : 1 ч. 30 м.
Общий поток : 2553 Кбит/сек
Программа кодирования : VirtualDubMod 1.5.10.2 (build 2540/release)
Библиотека кодирования : VirtualDubMod build 2540/release

Видео
Идентификатор : 0
Формат : MPEG-4 Visual
Профиль формата : Advanced Simple@L5
Параметр BVOP формата : 1
Параметр QPel формата : Нет
Параметр GMC формата : Без точки перехода
Параметр матрицы формата : Выборочная
Идентификатор кодека : XVID
Идентификатор кодека/Подсказка : XviD
Продолжительность : 1 ч. 30 м.
Битрейт : 1698 Кбит/сек
Ширина : 720 пикселей
Высота : 432 пикселя
Соотношение сторон : 1,667
Частота кадров : 25,000 кадров/сек
Цветовое пространство : YUV
Субдискретизация насыщенности : 4:2:0
Битовая глубина : 8 бит
Тип развёртки : Прогрессивная
Метод сжатия : С потерями
Бит/(Пиксели*Кадры) : 0.218
Размер потока : 1,08 Гбайт (67%)
Библиотека кодирования : XviD 1.2.0.dev47 (UTC 2006-11-01)

Аудио #1
Идентификатор : 1
Формат : AC-3
Формат/Информация : Audio Coding 3
Расширение режима : CM (complete main)
Параметр Endianness формата : Big
Идентификатор кодека : 2000
Продолжительность : 1 ч. 30 м.
Вид битрейта : Постоянный
Битрейт : 256 Кбит/сек
Каналы : 2 канала
Расположение каналов : Front: L R
Частота : 48,0 КГц
Битовая глубина : 16 бит
Метод сжатия : С потерями
Размер потока : 166 Мбайт (10%)
Выравнивание : Разделение по промежуткам
Продолжительность промежутка : 40 мс. (1,00 видеокадр)
Время предзагрузки промежутка : 500 мс.

Аудио #2
Идентификатор : 2
Формат : MPEG Audio
Версия формата : Version 1
Профиль формата : Layer 3
Идентификатор кодека : 55
Идентификатор кодека/Подсказка : MP3
Продолжительность : 1 ч. 30 м.
Вид битрейта : Постоянный
Битрейт : 128 Кбит/сек
Каналы : 2 канала
Частота : 44,1 КГц
Метод сжатия : С потерями
Размер потока : 82,6 Мбайт (5%)
Выравнивание : Разделение по промежуткам
Продолжительность промежутка : 40 мс. (1,01 видеокадр)
Время предзагрузки промежутка : 500 мс.

Аудио #3
Идентификатор : 3
Формат : MPEG Audio
Версия формата : Version 1
Профиль формата : Layer 3
Идентификатор кодека : 55
Идентификатор кодека/Подсказка : MP3
Продолжительность : 1 ч. 30 м.
Вид битрейта : Постоянный
Битрейт : 192 Кбит/сек
Каналы : 2 канала
Частота : 44,1 КГц
Метод сжатия : С потерями
Размер потока : 125 Мбайт (8%)
Выравнивание : Разделение по промежуткам
Продолжительность промежутка : 40 мс. (1,00 видеокадр)
Время предзагрузки промежутка : 500 мс.

Аудио #4
Идентификатор : 4
Формат : AC-3
Формат/Информация : Audio Coding 3
Расширение режима : CM (complete main)
Параметр Endianness формата : Big
Идентификатор кодека : 2000
Продолжительность : 1 ч. 30 м.
Вид битрейта : Постоянный
Битрейт : 256 Кбит/сек
Каналы : 2 канала
Расположение каналов : Front: L R
Частота : 48,0 КГц
Битовая глубина : 16 бит
Метод сжатия : С потерями
Размер потока : 166 Мбайт (10%)
Выравнивание : Разделение по промежуткам
Продолжительность промежутка : 40 мс. (1,00 видеокадр)
Время предзагрузки промежутка : 500 мс.

piratbit.pw



Скачать Туз через торрент http://pic.kartinco.top/images/1/u7clx3cd7e.jpg Скачать фильм Туз через торрент бесплантно в хорошем качестве Описание: Профессиональный карточный шулер по кличке Туз накануне свадьбы объявляет о своем решении завязать. Но неожиданно оказывается ... 10 10 3
Info! Золотая раздача, скачанное не засчитывается.
Торрент: Зарегистрирован [2013-02-13 16:01] · скачан: 167 раз
Статус: √ проверено
Размер: 1.62 GB
Как cкачать? Как скачать Туз через торрент | qTorrent

% Раздел Тема Автор DL S | L
Фильмы до 2000 г. [ 1.45 GB ] Туз / Asso [1981 BDRip] MVO AVO koenig Скачать
1 | 0
Фильмы до 2000 г. [ 700 MB ] Туз / Asso [1981 ... DVDRip] Steel Скачать
1 | 0


>> Регистрируемся здесь <<






Отзывы и комментарии о схеме читаем и пишем здесь: ---> Отзывы и комментарии о схеме

Новые благодарочки в телеграм довольных пользователей:
скриншот   скриншот   скриншот   скриншот   скриншот

13-02-2013 16:22 Туз Скачать торрент  

Отличный фильм!!!piratbit.pw



13-02-2013 16:55 Туз Скачать торрент  

-=Cherry=- писал(а):

Отличный фильм!!!

Согласен.piratbit.pw



    Дорогой пользователь! Огромная просьба, поблагодарите релизера, оцените раздачу и оставьте свои комментарий, если Вы скачали Туз через торрент бесплатно! Внесите свою лепту в развитие PiratBit!
    Комментировать посты могут только пользователи прошедшие не сложную регистрацию
    Показать сообщения:    

    Туз через торрент
    Скачать бесплатно Туз
    Туз скачать торрент
    Туз смотреть онлайн
    Cкачать фильм Туз бесплатно
    Туз скачать торрент в хорошем качестве
    Туз смотреть онлайн бесплатно в хорошем качестве


    Вы не можете начинать темы
    Вы не можете отвечать на сообщения
    Вы не можете редактировать свои сообщения
    Вы не можете удалять свои сообщения
    Вы не можете голосовать в опросах
    Вы не можете прикреплять файлы к сообщениям
    Вы можете скачивать файлы