Ссылка на приватное зеркало нашего сайта всего за 1$. Внимание количество ограничено!!!

2 сезон

iTunes

1 сезон

1

2 сезон

2 сезон

iTunes

1 сезон

RePack

30

Ultimate

ВАЖНО

ИГРА 18+

pack

RePack

MK11
pack

Забери бонус

RePack

jed

!!Акция!!

Alien_Rage

RePack

fifa19

RePack

Assassins Creed: Odyssey

RePack

NEED FOR SPEED™ PAYBACK

4 сезон

9 сезон

Бесстыжие 9 сезон

Все сериалы

все сериалы на PB.wtf

RePack

FAR CRY 5
  

Безумный Мадагаскар / Madly Madagascar (Дэвид Сорен) [2013 г., мультфильм, короткометражка, DVDRip, MVO] piratbit.pw

Безумный Мадагаскар через торрент piratbit.pw

Размер: 419 MB | Добавлен: 7 лет 9 мес. назад | Торрент скачан:400 раз
Скачать  

03-02-2013 09:44 Безумный Мадагаскар Скачать торрент  

Безумный Мадагаскар / Madly Madagascar

Год выпуска: 2013
Страна: США
Жанр: мультфильм, короткометражка
Продолжительность: 22 мин.
Перевод: Любительский многоголосый

Режиссер: Дэвид Сорен

Мировой рейтинг IMDB


В ролях: Бен Стиллер, Крис Рок, Джада Пинкетт Смит, Саша Барон Коэн

Описание: История, рассказанная в этом мультфильме, произошла с любимыми героями между второй и третьей частями, как раз накануне Дня Святого Валентина. Алекс очень любит этот праздник и всегда тщательно к нему готовится, ведь он уверен, что только любовь может спасти весь мир. Раньше он получал тонны открыток на этот праздник от поклонниц, но в Африке не принято праздновать его, и он собирается вместе со своими друзьями организовать настоящее торжество по случаю Дня Всех Влюбленных.

Качество: DVDRip
Формат: AVI
Видео кодек: XviD
Аудио кодек: AC3
Видео: 720x400 (16:9), 23.976 fps, 1 994 Kbps 0.274 bit/pixel
Аудио#1: 48 kHz, AC3 Dolby Digital, 2/0 ch, ~192.00 kbps (Russian)
Аудио#2: 48 kHz, AC3 Dolby Digital, 3/2 ch, ~448.00 kbps (English)

General
Complete name : E:МУЛЬТЫMadly Madagascar..2013.DVDRip.avi
Format : AVI
Format/Info : Audio Video Interleave
File size : 419 MiB
Duration : 22mn 7s
Overall bit rate : 2 649 Kbps
Writing application : VirtualDubModRus 1.5.10.2 (build 2542/release)
Writing library : VirtualDubMod build 2542/release

Video
ID : 0
Format : MPEG-4 Visual
Format profile : Advanced Simple@L5
Format settings, BVOP : 2
Format settings, QPel : No
Format settings, GMC : No warppoints
Format settings, Matrix : Custom
Codec ID : XVID
Codec ID/Hint : XviD
Duration : 22mn 7s
Bit rate : 1 994 Kbps
Width : 720 pixels
Height : 400 pixels
Display aspect ratio : 16:9
Frame rate : 23.976 fps
Color space : YUV
Chroma subsampling : 4:2:0
Bit depth : 8 bits
Scan type : Progressive
Compression mode : Lossy
Bits/(Pixel*Frame) : 0.289
Stream size : 316 MiB (75%)
Writing library : XviD 65

Audio #1
ID : 1
Format : AC-3
Format/Info : Audio Coding 3
Mode extension : CM (complete main)
Codec ID : 2000
Duration : 22mn 7s
Bit rate mode : Constant
Bit rate : 192 Kbps
Channel(s) : 2 channels
Channel positions : Front: L R
Sampling rate : 48.0 KHz
Bit depth : 16 bits
Compression mode : Lossy
Stream size : 30.4 MiB (7%)
Alignment : Split accross interleaves
Interleave, duration : 42 ms (1.00 video frame)
Interleave, preload duration : 500 ms

Audio #2
ID : 2
Format : AC-3
Format/Info : Audio Coding 3
Mode extension : CM (complete main)
Codec ID : 2000
Duration : 22mn 7s
Bit rate mode : Constant
Bit rate : 448 Kbps
Channel(s) : 6 channels
Channel positions : Front: L C R, Side: L R, LFE
Sampling rate : 48.0 KHz
Bit depth : 16 bits
Compression mode : Lossy
Stream size : 70.9 MiB (17%)
Alignment : Split accross interleaves
Interleave, duration : 42 ms (1.00 video frame)
Interleave, preload duration : 500 ms


Безумный Мадагаскар скачать торрент


piratbit.pw



Скачать Безумный Мадагаскар через торрент http://pic.kartinco.top/images/1/ucm8y318rk.jpg Скачать фильм Безумный Мадагаскар через торрент бесплантно в хорошем качестве Описание: История, рассказанная в этом мультфильме, произошла с любимыми героями между второй и третьей частями, как раз накануне Дня ... 9.5 10 12
Info! Золотая раздача, скачанное не засчитывается.
Торрент: Зарегистрирован [2013-02-03 09:44] · скачан: 400 раз
Статус: √ проверено
Размер: 419 MB
Как cкачать? Как скачать Безумный Мадагаскар через торрент | qTorrent

% Раздел Тема Автор DL S | L
Видео для КПК и Смартфонов [ 194 MB ] Безумный Мадагаскар / Madly Madagascar [2013 Мультфильм короткометражка DVDRip] Страна Скачать
1 | 0

28-11-2019 20:33  

Отключить всю рекламу на сайте

    Дорогой пользователь! Огромная просьба, поблагодарите релизера, оцените раздачу и оставьте свои комментарий, если Вы скачали Безумный Мадагаскар через торрент бесплатно! Внесите свою лепту в развитие PiratBit!
    Комментировать посты могут только пользователи прошедшие не сложную регистрацию
    Показать сообщения:    

    Безумный Мадагаскар через торрент
    Скачать бесплатно Безумный Мадагаскар
    Безумный Мадагаскар скачать торрент
    Безумный Мадагаскар смотреть онлайн
    Cкачать фильм Безумный Мадагаскар бесплатно
    Безумный Мадагаскар скачать торрент в хорошем качестве
    Безумный Мадагаскар смотреть онлайн бесплатно в хорошем качестве


    Вы не можете начинать темы
    Вы не можете отвечать на сообщения
    Вы не можете редактировать свои сообщения
    Вы не можете удалять свои сообщения
    Вы не можете голосовать в опросах
    Вы не можете прикреплять файлы к сообщениям
    Вы можете скачивать файлы