1 сезон

1 сезон

iTunes

1

КиноПоиск HD

Кинопоиск HD

iTunes

13

1 сезон

RePack

30

Deluxe

ВАЖНО

ИГРА 18+

pack

RePack

MK11
pack

Легкие деньги

RePack

jed

RePack

fifa19

RePack

RDR2

RePack

NEED FOR SPEED™ PAYBACK

4 сезон

9 сезон

Бесстыжие 9 сезон

Все сериалы

все сериалы на PB.wtf

RePack

FAR CRY 5
  
Magnet ссылка

Фальшивомонетчики / Die Fälscher (Штефан Руцовицки) [2007 г., драма, криминал, военный, HDRip, MVO] piratbit.pw

Фальшивомонетчики через торрент piratbit.pw

Размер: 1.46 GB | Добавлен: 8 лет 3 мес. назад | Торрент скачан:171 раз
Скачать  

25-01-2013 06:51 Фальшивомонетчики Скачать торрент  

Фальшивомонетчики / Die Fälscher


Год выпуска: 2007
Страна: Австрия
Жанр: драма, криминал, военный
Продолжительность: 01:38:54
Перевод: Профессиональный многоголосый

Режиссер: Штефан Руцовицки
Продюссер: Йозеф Айхгольцер, Нина Боллманн, Хеннинг Молфентер
Сценарий: Штефан Руцовицки, Адольф Бюргер
Премьера в мире: 10 февраля 2007



В ролях: Карл Марковиц, Аугуст Диль, Девид Штрисов, Мартин Брамбах, Аугуст Цирнер, Вейт Стабнер, Себастьян Урзендовский, Андреас Шмидт, Тило Прюкнер, Ленн Кудрявицки

Описание: Берлин, 1936 год. Короля фальшивомонетчиков еврейского происхождения Соломона берут с поличным и доставляют в концлагерь, где знаменитому мошеннику приходится выживать, рисуя картины фашистской пропаганды.Затем гестаповцы переводят его в закрытый лагерь Заксенхаузен, где по приказу Гитлера собирается секретная группа заключенных-фальшивомонетчиков, которые должны печатать фиктивные доллары и фунты-стерлинги для подрыва экономики вражеских государств. Опытный «блинопек» Соломон и типографщик Адольф Бюргер оказывается перед нелегким выбором: работать на фашистов или погибнуть...



Сэмпл / Трейлер

Качество: HDRip
Формат: AVI
Видео кодек: XviD
Аудио кодек: AC3
Видео: MPEG4, XviD, 704x384 (1.850), 23.976 fps, 1 652 Kbps (0.255 bit/pixel)
Аудио: AC-3, 48.0 KHz, 6 ch, 448 Kbps, CBR


Оскар, 2008 год
Победитель (1):
Лучший фильм на иностранном языке — «Австрия»
Берлинский кинофестиваль, 2007 год
Номинации (1):
Золотой Медведь
Формат : AVI
Формат/Информация : Audio Video Interleave
Размер файла : 1,46 Гбайт
Продолжительность : 1 ч. 38 м.
Общий поток : 2110 Кбит/сек
Название фильма : Die.Falscher
Программа кодирования : XviD4PSP 6.0 / 53.6.0
Примечание : Rip от кэп

Видео
Идентификатор : 0
Формат : MPEG-4 Visual
Профиль формата : Advanced Simple@L5
Параметр BVOP формата : Нет
Параметр QPel формата : Нет
Параметр GMC формата : Без точки перехода
Параметр матрицы формата : Default (MPEG)
Идентификатор кодека : XVID
Идентификатор кодека/Подсказка : XviD
Продолжительность : 1 ч. 38 м.
Битрейт : 1652 Кбит/сек
Ширина : 704 пикселя
Высота : 384 пикселя
Соотношение сторон : 1,85:1
Частота кадров : 23,976 кадра/сек
Цветовое пространство : YUV
Субдискретизация насыщенности : 4:2:0
Битовая глубина : 8 бит
Тип развёртки : Прогрессивная
Метод сжатия : С потерями
Бит/(Пиксели*Кадры) : 0.255
Размер потока : 1,14 Гбайт (78%)
Библиотека кодирования : XviD 64

Аудио
Идентификатор : 1
Формат : AC-3
Формат/Информация : Audio Coding 3
Расширение режима : CM (complete main)
Параметр Endianness формата : Big
Идентификатор кодека : 2000
Продолжительность : 1 ч. 38 м.
Вид битрейта : Постоянный
Битрейт : 448 Кбит/сек
Каналы : 6 каналов
Расположение каналов : Front: L C R, Side: L R, LFE
Частота : 48,0 КГц
Битовая глубина : 16 бит
Метод сжатия : С потерями
Размер потока : 316 Мбайт (21%)
Выравнивание : Соединение по промежуткам
Продолжительность промежутка : 32 мс. (0,77 видеокадр)
Время предзагрузки промежутка : 512 мс.
[th]https://pic1.kartinco.top/images/111/gmq356nogm.bmp[/th] [th]https://pic1.kartinco.top/images/111/5gl2bmjxmg.bmp[/th] [th]https://pic1.kartinco.top/images/111/2ljlc2h2us.bmp[/th] [th]https://pic1.kartinco.top/images/111/o3fq5extr3.bmp[/th] [th]https://pic1.kartinco.top/images/111/jawnberwdp.bmp[/th] [th]https://pic1.kartinco.top/images/111/9ntwrzb4qs.bmp[/th] piratbit.pw



Скачать Фальшивомонетчики через торрент http://i6.imageban.ru/out/2013/01/25/17b21ba459b2123e96e895f0f6f22819.png Скачать фильм Фальшивомонетчики через торрент бесплантно в хорошем качестве Описание: Берлин, 1936 год. Короля фальшивомонетчиков еврейского происхождения Соломона берут с поличным и доставляют в концлагерь, где ... 8 10 1
Info! Золотая раздача, скачанное не засчитывается.
Торрент: Зарегистрирован [2013-01-25 06:51] · скачан: 171 раз
Статус: √ проверено
Размер: 1.46 GB
Как cкачать? Как скачать Фальшивомонетчики через торрент | UTorrent

% Раздел Тема Автор DL S | L
Фильмы 2006-2008 [ 2.18 GB ] Фальшивомонетчики / Die Fälscher / The Counterfeiters [2007 военный BDRip] Sудья Скачать
1 | 0


Последний раз редактировалось: кэп (2013-02-22 09:53), всего редактировалось 1 раз

28-11-2019 20:33  

Отключить всю рекламу на сайте

25-01-2013 08:46 Фальшивомонетчики Скачать торрент  

Хороший фильм. Очень рекомендую.piratbit.pw



25-01-2013 09:47 Фальшивомонетчики Скачать торрент  

а причем тут Познер?piratbit.pw



25-01-2013 10:08 Фальшивомонетчики Скачать торрент  

lumeness писал(а):

а причем тут Познер?

Это моё личное лого.
piratbit.pw



25-01-2013 12:57 Фальшивомонетчики Скачать торрент  

Фильм должен быть интересным. Спасибо!piratbit.pw



22-02-2013 09:23 Фальшивомонетчики Скачать торрент  

Спасибо, встану на раздачуpiratbit.pw



    Дорогой пользователь! Огромная просьба, поблагодарите релизера, оцените раздачу и оставьте свои комментарий, если Вы скачали Фальшивомонетчики через торрент бесплатно! Внесите свою лепту в развитие PiratBit!
    Комментировать посты могут только пользователи прошедшие не сложную регистрацию
    Показать сообщения:    

    Фальшивомонетчики через торрент
    Скачать бесплатно Фальшивомонетчики
    Фальшивомонетчики скачать торрент
    Фальшивомонетчики смотреть онлайн
    Cкачать фильм Фальшивомонетчики бесплатно
    Фальшивомонетчики скачать торрент в хорошем качестве
    Фальшивомонетчики смотреть онлайн бесплатно в хорошем качестве


    Вы не можете начинать темы
    Вы не можете отвечать на сообщения
    Вы не можете редактировать свои сообщения
    Вы не можете удалять свои сообщения
    Вы не можете голосовать в опросах
    Вы не можете прикреплять файлы к сообщениям
    Вы можете скачивать файлы