1 сезон

3 сезон

iTunes

1

iTunes

DUB Netflix

iTunes

13

1 сезон

RePack

30

Deluxe

pack

Легкие деньги

ВАЖНО

ИГРА 18+

pack

RePack

MK11

RePack

jed

RePack

fifa19

RePack

RDR2

RePack

NEED FOR SPEED™ PAYBACK

4 сезон

9 сезон

Бесстыжие 9 сезон

Все сериалы

все сериалы на PB.wtf

RePack

FAR CRY 5

Anonymous, доброе утро, мы не успеваем до 1 числа собрать деньги на оплату серверов, помогите нам пожалуйста в это трудное время. В качестве благодарности мы отключим Вам всю рекламу на сайте (укажите свой ник в строку Ваше имя)!

×
  
Magnet ссылка

Стриптиз от зомби / Zombie Strippers (Джей Ли) [2008 г., ужасы, комедия, BDRip, MVO, лицензия] piratbit.pw

Стриптиз от зомби через торрент piratbit.pw

Размер: 1.45 GB | Добавлен: 8 лет 4 мес. назад | Торрент скачан:145 раз
Скачать  

23-01-2013 11:11 Стриптиз от зомби Скачать торрент  


Стриптиз от зомби / Zombie Strippers

Год выпуска: 2008
Страна: США
Жанр: ужасы, комедия
Продолжительность: 01:34:00
Перевод: Профессиональный многоголосый, Лицензия

Режиссер: Джей Ли
Продюссер: Эндрю Голов, Анджела Ли, Ларри Шапиро
Сценарий: Джей Ли

рейтинг R лицам до 17 лет обязательно присутствие взрослого

В ролях: Адам Смит, Дженна Джеймсон, Дженнифер Холлэнд, Джои Медина, Джон Т. Вудс, Джон Хоукс, Жанетт Суза, Кэлвин Грин, Пенни Дрэйк, Роберт Инглунд, Рокси Сэйнт, Тито Ортиц, Уитни Андерсон, Шеймрон Мур

Описание: В ближайшем будущем Джорджа Буша переизбирают на четвертый срок. В Ираке продолжаются военные действия, а в армии США не хватает солдат. Военные ищут решение этого вопроса и проводят испытания вируса, способного оживлять мертвых, чтобы сделать из них идеальных солдат, которые продолжают бой до тех пор, пока им не отстрелят голову. К сожалению, эксперимент выходит из-под контроля, и чтобы уничтожить множащуюся армию зомби, на помощь приходит взвод пехотинцев. Одного из пехотинцев Берда Флю кусает…

Качество: BDRip
Формат: AVI
Видео кодек: XviD
Аудио кодек: AC3
Видео: 720x304, 23.976 fps, 1806 kbps, 0.34 bit/pixel
Аудио#1: AC3, 48 kHz, 6 (ch), 384.00 kbps

Релиз от: nn99nn
скриншот  скриншот  скриншот  скриншот  скриншот  





General
Полное имя : D:Striptiz.ot.zombi.2008.RUS.BDRip.XviD.AC3.-HQCLUB.avi
Формат : AVI
Формат/Информация : Audio Video Interleave
Размер файла : 1.45 GiB
Продолжительность : 1h 34mn
Общий поток : 2 200 Kbps
Название фильма : Стриптиз от зомби / Зомби-стриптизерши / Zombie Strippers! [Unrated] (2008) BDRip
Режиссёр : Gellard
Жанр : ужасы, комедия
Программа кодирования : VirtualDubModRus 1.5.10.2 (build 2542/release)
Правообладатель : http://hqclub.net/
Примечание : 24.02.2012

Video
Идентификатор : 0
Формат : MPEG-4 Visual
Профиль формата : Advanced Simple@L5
Параметр BVOP формата : 1
Параметр QPel формата : No
Параметр GMC формата : No warppoints
Параметр матрицы формата : Custom
Идентификатор кодека : XVID
Идентификатор кодека/Подсказка : XviD
Продолжительность : 1h 34mn
Битрейт : 1 807 Kbps
Ширина : 720 pixels
Высота : 304 pixels
Соотношение сторон : 2.35:1
Частота кадров : 23.976 fps
Цветовое пространство : YUV
Субдискретизация насыщенности : 4:2:0
Битовая глубина : 8 bits
Тип развёртки : Progressive
Метод сжатия : Lossy
Бит/(Пиксели*Кадры) : 0.344
Размер потока : 1.19 GiB (82%)
Библиотека кодирования : XviD 1.2.1 (UTC 2008-12-04)

Audio
Идентификатор : 1
Формат : AC-3
Формат/Информация : Audio Coding 3
Расширение режима : CM (complete main)
Параметр Endianness формата : Big
Идентификатор кодека : 2000
Продолжительность : 1h 34mn
Вид битрейта : Constant
Битрейт : 384 Kbps
Каналы : 6 channels
Расположение каналов : Front: L C R, Side: L R, LFE
Частота : 48.0 KHz
Битовая глубина : 16 bits
Метод сжатия : Lossy
Размер потока : 259 MiB (17%)
Выравнивание : Split accross interleaves
Продолжительность промежутка : 42 ms (1.00 video frame)
Время предзагрузки промежутка : 500 ms

piratbit.pw



Скачать Стриптиз от зомби через торрент https://pic1.kartinco.top/images/111/fclgx4yak2.jpg Скачать фильм Стриптиз от зомби через торрент бесплантно в хорошем качестве Описание: В ближайшем будущем Джорджа Буша переизбирают на четвертый срок. В Ираке продолжаются военные действия, а в армии США не хватает ... 5 10 1
Info! Золотая раздача, скачанное не засчитывается.
Торрент: Зарегистрирован [2013-01-23 11:11] · скачан: 145 раз
Статус: √ проверено
Размер: 1.45 GB
Как cкачать? Как скачать Стриптиз от зомби через торрент | UTorrent

% Раздел Тема Автор DL S | L
# Фильмы 2006-2008 [ 748 MB ] Стриптиз от зомби / Zombie Strippers [2008 HDRip ] Sherif Скачать
1 | 0
Фильмы 2006-2008 [ 1.46 GB ] Стриптиз от зомби / Zombie Strippers! [2008 BDRip] Sудья Скачать
1 | 0
Фильмы 2010 [ 1.96 GB ] Сисястые стервы: Стриптизёрши против зомби 5 / The Big Tits Dragon: Hot Spring Zombies vs Strippers 5 [2010 DVDRip] SD Скачать
1 | 0
Фильмы 2006-2008 [ 1.46 GB ] Зомби-стриптизерши / Стриптиз от зомби / Zombie Strippers [2008 Ужас BDRip ] SD Скачать
1 | 0

28-11-2019 20:33  

Отключить всю рекламу на сайте

23-01-2013 11:28 Стриптиз от зомби Скачать торрент  

ужасный трэшачек наверное)) гляну спс )piratbit.pw



23-01-2013 12:11 Стриптиз от зомби Скачать торрент  

viktorius писал(а):

ужасный трэшачек наверное)) гляну спс )

если_трэш_зачем_смотреть?!piratbit.pw



23-01-2013 12:52 Стриптиз от зомби Скачать торрент  

leonpad писал(а):

viktorius писал(а):

ужасный трэшачек наверное)) гляну спс )

если_трэш_зачем_смотреть?!

Поржатьpiratbit.pw



23-01-2013 14:18 Стриптиз от зомби Скачать торрент  

хммм... соседка моя канешна не настолько красава как курица на постере, но зато я точно знаю, что по окончании "просмотра" получу удовлетворение от "процесса")) спасибо, качать не рискну)) автору спс все равно, старался как мог... ))piratbit.pw



23-01-2013 15:33 Стриптиз от зомби Скачать торрент  

Херомантия какая, скачал из-за Дженны Джеймсон, Нет, нет я не "клубнички" хотел.piratbit.pw



24-01-2013 06:13 Стриптиз от зомби Скачать торрент  

дженна рулит парадом )piratbit.pw



24-01-2013 13:46 Стриптиз от зомби Скачать торрент  

Привет , Попрошаки)))piratbit.pw



    Дорогой пользователь! Огромная просьба, поблагодарите релизера, оцените раздачу и оставьте свои комментарий, если Вы скачали Стриптиз от зомби через торрент бесплатно! Внесите свою лепту в развитие PiratBit!
    Комментировать посты могут только пользователи прошедшие не сложную регистрацию
    Показать сообщения:    

    Стриптиз от зомби через торрент
    Скачать бесплатно Стриптиз от зомби
    Стриптиз от зомби скачать торрент
    Стриптиз от зомби смотреть онлайн
    Cкачать фильм Стриптиз от зомби бесплатно
    Стриптиз от зомби скачать торрент в хорошем качестве
    Стриптиз от зомби смотреть онлайн бесплатно в хорошем качестве


    Вы не можете начинать темы
    Вы не можете отвечать на сообщения
    Вы не можете редактировать свои сообщения
    Вы не можете удалять свои сообщения
    Вы не можете голосовать в опросах
    Вы не можете прикреплять файлы к сообщениям
    Вы можете скачивать файлы